aoloffline
版主

[更 早] [欧美] [动画] [WEB-1080P] [BT下载]野外怪家庭 The.Wild.Thornberrys.Movie.2002.1080p.WEBRip.DD5.1.x264-TrollHD 7.3G

-->

◎译  名 野外怪家庭/蛮荒历险记/原野小英雄

◎片  名 The Wild Thornberrys Movie

◎年  代 2002

◎国  家 美国

◎类  别 冒险/动画/家庭/喜剧/奇幻

◎语  言 英语

◎上映日期 2002-09-08(加拿大)/2002-12-08(美国)

◎IMDb评分  5.2/10 from 12,389 users

◎IMDb链接  http://www.imdb.com/title/tt0282120/

◎豆瓣评分 6.9/10 from 42 users

◎豆瓣链接 https://movie.douban.com/subject/1307968/

◎BT之家整理 http://www.btbtt.co 

◎片  长 85 分钟

◎导  演 Cathy Malkasian / Jeff McGrath

◎主  演 莱西·沙伯特 Lacey Chabert

      汤姆·凯恩 Tom Kane

      蒂姆·克里 Tim Curry

      琳恩·雷德格瑞夫 Lynn Redgrave

      丹妮尔·哈丽丝 Danielle Harris

      弗利 Flea

      阿尔法·沃德 Alfre Woodard

      布洛克·皮特斯 Brock Peters

      梅·惠特曼 Mae Whitman

      约翰·卡西尔 John Kassir

      布兰达·布莱斯 Brenda Blethyn

      玛丽莎·托梅 Marisa Tomei

      鲁伯特·艾弗雷特 Rupert Everett

      伊桑·菲利普斯 Ethan Phillips

      劳伦·汤姆 Lauren Tom


◎简  介


  这是一次野外的冒险。12岁的伊丽莎到非洲旅行,在这里她遇到一个神秘的巫师赋予她跟动物交谈的奇异力量。但有一个条件,她不能向别人泄露这个秘密,否则她将永远失去这种能力。一天,伊丽莎发现偷猎者打算捕杀象群,并用电网把它们隔离开,伊丽莎跟她的宠物非洲猩猩决心阻止他们拯救大象。


◎获奖情况


  第75届奥斯卡金像奖  (2003)

  最佳原创歌曲(提名) 保罗·西蒙


Video
ID                                       : 2
Format                                   : AVC
Format/Info                              : Advanced Video Codec
Format profile                           : High@L4
Format settings, CABAC                   : Yes
Format settings, ReFrames                : 4 frames
Codec ID                                 : V_MPEG4/ISO/AVC
Duration                                 : 1h 25mn
Bit rate mode                            : Variable
Bit rate                                 : 11.8 Mbps
Maximum bit rate                         : 15.0 Mbps
Width                                    : 1 920 pixels
Height                                   : 1 080 pixels
Display aspect ratio                     : 16:9
Frame rate mode                          : Constant
Frame rate                               : 23.976 (24000/1001) fps
Color space                              : YUV
Chroma subsampling                       : 4:2:0
Bit depth                                : 8 bits
Scan type                                : Progressive
Bits/(Pixel*Frame)                       : 0.237
Stream size                              : 7.01 GiB (95%)
Writing library                          : x264 core 148 r2623 d5b2374
Encoding settings                        : cabac=1 / ref=4 / deblock=1:-1:-1 / analyse=0x3:0x133 / me=umh / subme=9 / psy=1 / psy_rd=1.00:0.15 / mixed_ref=1 / me_range=24 / chroma_me=1 / trellis=2 / 8x8dct=1 / cqm=0 / deadzone=21,11 / fast_pskip=1 / chroma_qp_offset=-3 / threads=34 / lookahead_threads=5 / sliced_threads=0 / nr=150 / decimate=1 / interlaced=0 / bluray_compat=0 / constrained_intra=0 / bframes=8 / b_pyramid=2 / b_adapt=2 / b_bias=0 / direct=3 / weightb=1 / open_gop=0 / weightp=2 / keyint=120 / keyint_min=61 / scenecut=0 / intra_refresh=0 / rc_lookahead=120 / rc=crf / mbtree=1 / crf=18.0 / qcomp=0.60 / qpmin=0 / qpmax=69 / qpstep=4 / vbv_maxrate=15000 / vbv_bufsize=31250 / crf_max=0.0 / nal_hrd=vbr / filler=0 / ip_ratio=1.40 / aq=3:1.00
Default                                  : Yes
Forced                                   : No
Color range                              : Limited
Color primaries                          : BT.709
Transfer characteristics                 : BT.709
Matrix coefficients                      : BT.709

Audio
ID                                       : 1
Format                                   : E-AC-3
Format/Info                              : Audio Coding 3
Format settings, Endianness              : Big
Codec ID                                 : A_EAC3
Duration                                 : 1h 25mn
Bit rate mode                            : Constant
Bit rate                                 : 640 Kbps
Channel(s)                               : 6 channels
Channel positions                        : Front: L C R, Side: L R, LFE
Sampling rate                            : 48.0 KHz
Frame rate                               : 187.500 fps (256 spf)
Compression mode                         : Lossy
Stream size                              : 390 MiB (5%)
Language                                 : English
Default                                  : Yes
Forced                                   : No

Text
ID                                       : 3
Format                                   : UTF-8
Codec ID                                 : S_TEXT/UTF8
Codec ID/Info                            : UTF-8 Plain Text
Duration                                 : 1h 24mn
Bit rate                                 : 76 bps
Count of elements                        : 1337
Stream size                              : 47.6 KiB (0%)
Default                                  : Yes
Forced                                   : No





1 个附件 售价 大小 下载 时间

The.Wild.Thornberrys.Movie.2002.1080p.WEBRip.DD5.1.x264-TrollHD[btbtt.co].torrent 0 金币 74.58K 697 次 7月前

#1楼
发帖时间:2017-01-11 14:22:34   |   回复数:3
911degrees
一代宗师
非常感谢,谢谢分享
7月前 #2楼
liyouchai
超凡入圣№
谢谢楼主分享资源
7月前 #3楼
blue23
超凡入圣№
感谢楼主分享
7月前 #4楼
游客组