aoloffline
版主

[2013] [欧美] [纪录] [WEB-1080P] [BT下载]一代女王:伊莉莎白二世 2013.1080p.WEBRip.DD2.0.x264-monkee 6.17GB

-->

◎译  名 一代女王:伊莉莎白二世

◎片  名 The.Majestic.Life.of.Queen.Elizabeth.II

◎年  代 2013

◎国  家 美国

◎类  别 传记

◎语  言 英语

◎IMDb评分  5.9/10 from 1 users

◎IMDb链接  http://imdb.com/title/tt2609776/

◎BT之家整理 http://www.btbtt.co 

◎导  演 Alan Byron

◎主  演 Gyles Brandreth ... Himself

      Tim Heald ... Himself


◎简  介


  女王伊莉莎白二世為16個大英國協王國的君主,也是由53個國家組成的大英國協的元首,統領她的子民長達六十年,她不僅見證了半世紀以來劇烈的社會、政治以及文化變遷,也維護了英國君主制度的尊嚴及威望,成為民眾愛戴的王室典範。本片紀錄了一個年輕的公主,如何成為偉大女王的精彩故事,包括她在二次世界大戰期間嫁給了菲利浦王子的婚禮。1952年2月6日,出訪肯亞的伊麗莎白獲悉父王喬治六世國王去世,即時中斷訪問飛回倫敦,當她走下飛機時,已是女王的身份。次年六月,年僅27歲在西敏寺成為女王的加冕典禮,一直到她的孫子威廉王子與凱特的世紀婚禮,以及2012年慶祝女王登基60周年的鑽禧慶典。



Video
ID                                       : 1
Format                                   : AVC
Format/Info                              : Advanced Video Codec
Format profile                           : High@L4
Format settings, CABAC                   : Yes
Format settings, ReFrames                : 4 frames
Codec ID                                 : V_MPEG4/ISO/AVC
Duration                                 : 1h 34mn
Bit rate mode                            : Variable
Bit rate                                 : 9 120 Kbps
Maximum bit rate                         : 15.0 Mbps
Width                                    : 1 920 pixels
Height                                   : 1 080 pixels
Display aspect ratio                     : 16:9
Frame rate mode                          : Constant
Frame rate                               : 23.976 (24000/1001) fps
Color space                              : YUV
Chroma subsampling                       : 4:2:0
Bit depth                                : 8 bits
Scan type                                : Progressive
Bits/(Pixel*Frame)                       : 0.183
Stream size                              : 6.02 GiB (98%)
Writing library                          : x264 core 148 r2623 d5b2374
Encoding settings                        : cabac=1 / ref=4 / deblock=1:-1:-1 / analyse=0x3:0x133 / me=umh / subme=9 / psy=1 / psy_rd=1.00:0.15 / mixed_ref=1 / me_range=24 / chroma_me=1 / trellis=2 / 8x8dct=1 / cqm=0 / deadzone=21,11 / fast_pskip=1 / chroma_qp_offset=-3 / threads=34 / lookahead_threads=5 / sliced_threads=0 / nr=150 / decimate=1 / interlaced=0 / bluray_compat=0 / constrained_intra=0 / bframes=8 / b_pyramid=2 / b_adapt=2 / b_bias=0 / direct=3 / weightb=1 / open_gop=0 / weightp=2 / keyint=120 / keyint_min=61 / scenecut=0 / intra_refresh=0 / rc_lookahead=120 / rc=crf / mbtree=1 / crf=18.0 / qcomp=0.60 / qpmin=0 / qpmax=69 / qpstep=4 / vbv_maxrate=15000 / vbv_bufsize=31250 / crf_max=0.0 / nal_hrd=vbr / filler=0 / ip_ratio=1.40 / aq=3:1.00
Default                                  : Yes
Forced                                   : No
Color range                              : Limited
Color primaries                          : BT.709
Transfer characteristics                 : BT.709
Matrix coefficients                      : BT.709

Audio
ID                                       : 2
Format                                   : E-AC-3
Format/Info                              : Audio Coding 3
Format settings, Endianness              : Big
Codec ID                                 : A_EAC3
Duration                                 : 1h 34mn
Bit rate mode                            : Constant
Bit rate                                 : 224 Kbps
Channel(s)                               : 2 channels
Channel positions                        : Front: L R
Sampling rate                            : 48.0 KHz
Frame rate                               : 187.500 fps (256 spf)
Compression mode                         : Lossy
Stream size                              : 152 MiB (2%)
Language                                 : English
Default                                  : Yes
Forced                                   : No

Text
ID                                       : 3
Format                                   : UTF-8
Codec ID                                 : S_TEXT/UTF8
Codec ID/Info                            : UTF-8 Plain Text
Duration                                 : 1h 33mn
Bit rate                                 : 108 bps
Count of elements                        : 1397
Stream size                              : 74.8 KiB (0%)
Language                                 : English
Default                                  : No
Forced                                   : No





1 个附件 售价 大小 下载 时间

The.Majestic.Life.of.Queen.Elizabeth.II.2013.1080p.WEBRip.DD2.0.x264-monkee[btbtt.co].torrent 0 金币 62.43K 1051 次 11月前

#1楼
发帖时间:2017-01-11 14:08:07   |   回复数:3
911degrees
超凡入圣№
非常感谢,谢谢分享
11月前 #2楼
liyouchai
超凡入圣№
谢谢楼主分享资源
11月前 #3楼
blue23
隐世仙人♂
感谢楼主分享
11月前 #4楼
游客组