aoloffline
版主

[更 早] [欧美] [喜剧] [WEB-1080P] [BT下载]野蛮城市/野蛮都市 Jungle.2.Jungle.1997.1080p.WEBRip.DD5.1.x264-TrollHD 10.5GB

-->

◎译  名 野蛮城市/野蛮都市/阿仔出山

◎片  名 Jungle 2 Jungle

◎年  代 1997

◎国  家 美国/法国

◎类  别 冒险/喜剧/家庭/爱情

◎语  言 英语

◎上映日期 1997-03-07(美国)

◎IMDb评分  5.0/10 from 18,605 users

◎IMDb链接  http://www.imdb.com/title/tt0119432/

◎豆瓣评分 8.0/10 from 300 users

◎豆瓣链接 https://movie.douban.com/subject/1305339/

◎BT之家整理 http://www.btbtt.co 

◎片  长 105 分钟

◎导  演 约翰·帕斯昆 John Pasquin

◎主  演 蒂姆·艾伦 Tim Allen

      马丁·肖特 Martin Short

      乔贝兹·威廉姆斯 JoBeth Williams


◎简  介


  当事业有成的经纪米高佳华(蒂姆艾伦 饰)赴亚马逊森林去找他的太太签署婚书时,才发现一个意外惊喜──他竟然有一个由土著抚养长大的13岁儿子!米高结果同意带他的儿子返回自己的石屎森林纽约市,并很快就领略到儿子顽强的捣蛋天赋!同时期,他的儿子要适应米高的未婚妻及显赫的商界伙伴亦非容易,互相适应的过程绝对搞笑及精彩!


Video
ID                                       : 2
Format                                   : AVC
Format/Info                              : Advanced Video Codec
Format profile                           : High@L4
Format settings, CABAC                   : Yes
Format settings, ReFrames                : 4 frames
Codec ID                                 : V_MPEG4/ISO/AVC
Duration                                 : 1h 44mn
Bit rate mode                            : Variable
Bit rate                                 : 13.8 Mbps
Maximum bit rate                         : 15.0 Mbps
Width                                    : 1 920 pixels
Height                                   : 1 080 pixels
Display aspect ratio                     : 16:9
Frame rate mode                          : Constant
Frame rate                               : 23.976 (24000/1001) fps
Color space                              : YUV
Chroma subsampling                       : 4:2:0
Bit depth                                : 8 bits
Scan type                                : Progressive
Bits/(Pixel*Frame)                       : 0.277
Stream size                              : 10.1 GiB (96%)
Writing library                          : x264 core 148 r2623 d5b2374
Encoding settings                        : cabac=1 / ref=4 / deblock=1:-1:-1 / analyse=0x3:0x133 / me=umh / subme=9 / psy=1 / psy_rd=1.00:0.15 / mixed_ref=1 / me_range=24 / chroma_me=1 / trellis=2 / 8x8dct=1 / cqm=0 / deadzone=21,11 / fast_pskip=1 / chroma_qp_offset=-3 / threads=34 / lookahead_threads=5 / sliced_threads=0 / nr=150 / decimate=1 / interlaced=0 / bluray_compat=0 / constrained_intra=0 / bframes=8 / b_pyramid=2 / b_adapt=2 / b_bias=0 / direct=3 / weightb=1 / open_gop=0 / weightp=2 / keyint=120 / keyint_min=61 / scenecut=0 / intra_refresh=0 / rc_lookahead=120 / rc=crf / mbtree=1 / crf=18.0 / qcomp=0.60 / qpmin=0 / qpmax=69 / qpstep=4 / vbv_maxrate=15000 / vbv_bufsize=31250 / crf_max=0.0 / nal_hrd=vbr / filler=0 / ip_ratio=1.40 / aq=3:1.00
Default                                  : Yes
Forced                                   : No
Color range                              : Limited
Color primaries                          : BT.709
Transfer characteristics                 : BT.709
Matrix coefficients                      : BT.709

Audio
ID                                       : 1
Format                                   : E-AC-3
Format/Info                              : Audio Coding 3
Format settings, Endianness              : Big
Codec ID                                 : A_EAC3
Duration                                 : 1h 44mn
Bit rate mode                            : Constant
Bit rate                                 : 640 Kbps
Channel(s)                               : 6 channels
Channel positions                        : Front: L C R, Side: L R, LFE
Sampling rate                            : 48.0 KHz
Frame rate                               : 187.500 fps (256 spf)
Compression mode                         : Lossy
Stream size                              : 480 MiB (4%)
Language                                 : English
Default                                  : Yes
Forced                                   : No

Text
ID                                       : 3
Format                                   : UTF-8
Codec ID                                 : S_TEXT/UTF8
Codec ID/Info                            : UTF-8 Plain Text
Duration                                 : 1h 42mn
Bit rate                                 : 72 bps
Count of elements                        : 1394
Stream size                              : 54.5 KiB (0%)
Default                                  : Yes
Forced                                   : No





1 个附件 售价 大小 下载 时间

Jungle.2.Jungle.1997.1080p.WEBRip.DD5.1.x264-TrollHD[btbtt.co].torrent 0 金币 53.32K 1278 次 4月前

#1楼
发帖时间:2017-01-11 12:48:02   |   回复数:3
911degrees
一代宗师
非常感谢,谢谢分享
4月前 #2楼
liyouchai
超凡入圣№
谢谢楼主分享资源
4月前 #3楼
blue23
超凡入圣№
感谢楼主分享
4月前 #4楼
游客组