aoloffline
版主

[2015] [欧美] [奇幻] [WEB-1080P] [BT下载]隐形姐妹 Invisible.Sister.2015.1080p.WEBRip.DD5.1.x264-TrollHD 6.7GB

-->

◎译  名 隐形姐妹

◎片  名 Invisible Sister

◎年  代 2015

◎国  家 美国

◎类  别 喜剧/奇幻/冒险

◎语  言 英语

◎上映日期 2015-10-09(美国)

◎IMDb评分  6.4/10 from 1,182 users

◎IMDb链接  http://www.imdb.com/title/tt4420110/

◎豆瓣评分 5.5/10 from 864 users

◎豆瓣链接 https://movie.douban.com/subject/26638439/

◎BT之家整理 http://www.btbtt.co 

◎片  长 78分钟

◎导  演 保罗·霍恩 Paul Hoen

◎主  演 罗温·布兰查德 Rowan Blanchard

      帕里斯·贝尔克 Paris Berelc

      卡兰·布拉尔 Karan Brar

      Rachel Crow

      奥斯汀·法瑞伯格 Austin Fryberger

      威尔·梅耶 Will Meyers

      艾利克斯·迪塞尔 Alex Désert

      斯科特·里维斯 Scott Reeves

      斯嘉丽特·米尔罗尼 Starlette Miariaunii


◎简  介


  一直生活在姐姐成功的阴影下的克莱奥(罗温·布兰查德 Rowan Blanchard 饰)在科研试验过程中不小心制出了隐形药剂,把姐姐变成了隐形人。经过了一系列艰难险阻,遭到忽视的克莱奥能成功将平日如影随形的姐姐变回来吗?姐妹俩又将如何处置彼此之间的尴尬关系呢?面对暗恋的男生卡特,又能否顺利的告白呢?


Video
ID                                       : 2
Format                                   : AVC
Format/Info                              : Advanced Video Codec
Format profile                           : High@L4
Format settings, CABAC                   : Yes
Format settings, ReFrames                : 4 frames
Codec ID                                 : V_MPEG4/ISO/AVC
Duration                                 : 1h 17mn
Bit rate mode                            : Variable
Bit rate                                 : 11.7 Mbps
Maximum bit rate                         : 15.0 Mbps
Width                                    : 1 920 pixels
Height                                   : 1 080 pixels
Display aspect ratio                     : 16:9
Frame rate mode                          : Constant
Frame rate                               : 23.976 (24000/1001) fps
Color space                              : YUV
Chroma subsampling                       : 4:2:0
Bit depth                                : 8 bits
Scan type                                : Progressive
Bits/(Pixel*Frame)                       : 0.236
Stream size                              : 6.36 GiB (95%)
Writing library                          : x264 core 148 r2623 d5b2374
Encoding settings                        : cabac=1 / ref=4 / deblock=1:-1:-1 / analyse=0x3:0x133 / me=umh / subme=9 / psy=1 / psy_rd=1.00:0.15 / mixed_ref=1 / me_range=24 / chroma_me=1 / trellis=2 / 8x8dct=1 / cqm=0 / deadzone=21,11 / fast_pskip=1 / chroma_qp_offset=-3 / threads=34 / lookahead_threads=5 / sliced_threads=0 / nr=150 / decimate=1 / interlaced=0 / bluray_compat=0 / constrained_intra=0 / bframes=8 / b_pyramid=2 / b_adapt=2 / b_bias=0 / direct=3 / weightb=1 / open_gop=0 / weightp=2 / keyint=120 / keyint_min=61 / scenecut=0 / intra_refresh=0 / rc_lookahead=120 / rc=crf / mbtree=1 / crf=18.0 / qcomp=0.60 / qpmin=0 / qpmax=69 / qpstep=4 / vbv_maxrate=15000 / vbv_bufsize=31250 / crf_max=0.0 / nal_hrd=vbr / filler=0 / ip_ratio=1.40 / aq=3:1.00
Default                                  : Yes
Forced                                   : No
Color range                              : Limited
Color primaries                          : BT.709
Transfer characteristics                 : BT.709
Matrix coefficients                      : BT.709

Audio
ID                                       : 1
Format                                   : E-AC-3
Format/Info                              : Audio Coding 3
Format settings, Endianness              : Big
Codec ID                                 : A_EAC3
Duration                                 : 1h 17mn
Bit rate mode                            : Constant
Bit rate                                 : 640 Kbps
Channel(s)                               : 6 channels
Channel positions                        : Front: L C R, Side: L R, LFE
Sampling rate                            : 48.0 KHz
Frame rate                               : 187.500 fps (256 spf)
Compression mode                         : Lossy
Stream size                              : 356 MiB (5%)
Language                                 : English
Default                                  : Yes
Forced                                   : No

Text
ID                                       : 3
Format                                   : UTF-8
Codec ID                                 : S_TEXT/UTF8
Codec ID/Info                            : UTF-8 Plain Text
Duration                                 : 1h 17mn
Bit rate                                 : 75 bps
Count of elements                        : 1386
Stream size                              : 43.1 KiB (0%)
Default                                  : Yes
Forced                                   : No





1 个附件 售价 大小 下载 时间

Invisible.Sister.2015.1080p.WEBRip.DD5.1.x264-TrollHD[btbtt.co].torrent 0 金币 67.74K 1615 次 7月前

#1楼
发帖时间:2017-01-11 12:43:30   |   回复数:3
911degrees
一代宗师
非常感谢,谢谢分享
7月前 #2楼
liyouchai
超凡入圣№
谢谢楼主分享资源
7月前 #3楼
blue23
超凡入圣№
感谢楼主分享
7月前 #4楼
游客组