aoloffline
版主

[2011] [欧美] [喜剧] [WEB-1080P] [BT下载]查莉成长日记 圣诞假期 2011.1080p.WEBRip.DD5.1.x264-TrollHD 7.83GB

-->

◎译  名 查莉成长日记 圣诞假期/夏莉成长日记:圣诞假期

◎片  名 Good Luck Charlie It's Christmas!

◎年  代 2011

◎国  家 美国

◎类  别 喜剧/家庭

◎语  言 英语

◎上映日期 2011-12-02(美国)

◎IMDb评分  6.6/10 from 3,100 users

◎IMDb链接  http://www.imdb.com/title/tt1828976/

◎豆瓣评分 6.8/10 from 551 users

◎豆瓣链接 https://movie.douban.com/subject/10439889/

◎BT之家整理 http://www.btbtt.co 

◎导  演 Arlene Sanford

◎主  演 布丽奇·门德勒 Bridgit Mendler

      莱特·艾琳·贝克尔 Leigh Allyn Baker

      布拉德利·史蒂文·派瑞 Bradley Steven Perry

      米娅·塔莱里科 Mia Talerico

      艾瑞克·阿兰·克拉默 Eric Allan Kramer

      杰森·多雷 Jason Dolley


◎简  介


  查莉一家要去Amy Duncan的家去过圣诞节。本来只是个很平凡的事情,但是由于一些出乎意料事情的出现,导致了这个假期注定不平凡。Teddy想在春假时和她的朋友ivy一起到外面玩,但是Amy就是不肯。后面Bob妥协了,答应Teddy如果她能搞定机票,就可以让她出去。Gabe沉溺于死亡星系二之中,可是还没打通关就得出发,他想偷偷的把游戏机带过去。而对于Amy,圣诞树顶的星星的丢失对她打击很大。而Bob则很惧怕面对Amy的母亲。就这样,大家各怀心事地登上了飞机,精彩的故事就此展开。



Video
ID                                       : 2
Format                                   : AVC
Format/Info                              : Advanced Video Codec
Format profile                           : High@L4
Format settings, CABAC                   : Yes
Format settings, ReFrames                : 4 frames
Codec ID                                 : V_MPEG4/ISO/AVC
Duration                                 : 1h 20mn
Bit rate mode                            : Variable
Bit rate                                 : 13.3 Mbps
Maximum bit rate                         : 15.0 Mbps
Width                                    : 1 920 pixels
Height                                   : 1 080 pixels
Display aspect ratio                     : 16:9
Frame rate mode                          : Constant
Frame rate                               : 23.976 (24000/1001) fps
Color space                              : YUV
Chroma subsampling                       : 4:2:0
Bit depth                                : 8 bits
Scan type                                : Progressive
Bits/(Pixel*Frame)                       : 0.268
Stream size                              : 7.47 GiB (95%)
Writing library                          : x264 core 148 r2623 d5b2374
Encoding settings                        : cabac=1 / ref=4 / deblock=1:-1:-1 / analyse=0x3:0x133 / me=umh / subme=9 / psy=1 / psy_rd=1.00:0.15 / mixed_ref=1 / me_range=24 / chroma_me=1 / trellis=2 / 8x8dct=1 / cqm=0 / deadzone=21,11 / fast_pskip=1 / chroma_qp_offset=-3 / threads=34 / lookahead_threads=5 / sliced_threads=0 / nr=150 / decimate=1 / interlaced=0 / bluray_compat=0 / constrained_intra=0 / bframes=8 / b_pyramid=2 / b_adapt=2 / b_bias=0 / direct=3 / weightb=1 / open_gop=0 / weightp=2 / keyint=120 / keyint_min=61 / scenecut=0 / intra_refresh=0 / rc_lookahead=120 / rc=crf / mbtree=1 / crf=18.0 / qcomp=0.60 / qpmin=0 / qpmax=69 / qpstep=4 / vbv_maxrate=15000 / vbv_bufsize=31250 / crf_max=0.0 / nal_hrd=vbr / filler=0 / ip_ratio=1.40 / aq=3:1.00
Default                                  : Yes
Forced                                   : No
Color range                              : Limited
Color primaries                          : BT.709
Transfer characteristics                 : BT.709
Matrix coefficients                      : BT.709

Audio
ID                                       : 1
Format                                   : E-AC-3
Format/Info                              : Audio Coding 3
Format settings, Endianness              : Big
Codec ID                                 : A_EAC3
Duration                                 : 1h 20mn
Bit rate mode                            : Constant
Bit rate                                 : 640 Kbps
Channel(s)                               : 6 channels
Channel positions                        : Front: L C R, Side: L R, LFE
Sampling rate                            : 48.0 KHz
Frame rate                               : 187.500 fps (256 spf)
Compression mode                         : Lossy
Stream size                              : 368 MiB (5%)
Language                                 : English
Default                                  : Yes
Forced                                   : No

Text
ID                                       : 3
Format                                   : UTF-8
Codec ID                                 : S_TEXT/UTF8
Codec ID/Info                            : UTF-8 Plain Text
Duration                                 : 1h 19mn
Bit rate                                 : 86 bps
Count of elements                        : 1608
Stream size                              : 50.5 KiB (0%)
Default                                  : Yes
Forced                                   : No






1 个附件 售价 大小 下载 时间

Good.Luck.Charlie.Its.Christmas.2011.1080p.WEBRip.DD5.1.x264-TrollHD[btbtt.co].torrent 0 金币 78.95K 823 次 6月前

#1楼
发帖时间:2017-01-11 12:34:36   |   回复数:3
911degrees
一代宗师
非常感谢,谢谢分享
6月前 #2楼
liyouchai
超凡入圣№
谢谢楼主分享资源
6月前 #3楼
blue23
超凡入圣№
感谢楼主分享
6月前 #4楼
游客组