aoloffline
版主

[更 早] [欧美] [喜剧] [WEB-1080P] [BT下载]溜冰甜心 Go.Figure.2005.1080p.WEBRip.DD5.1.x264-TrollHD 3.14GB

-->

◎译  名 溜冰甜心

◎片  名 Go Figure

◎国  家 美国

◎类  别 喜剧/家庭/体育

◎语  言 英语

◎上映日期 2005-06-10

◎IMDb评分  5.9/10 from 2,577 users

◎IMDb链接  http://www.imdb.com/title/tt0447987/

◎BT之家整理 http://www.btbtt.co 

◎导  演 Francine McDougall

◎主  演 乔丹·莘森 Jordan Hinson

      Whitney Sloan


◎简  介


  "Go Figure" follows 14-year-old Katelin in her quest to become a world class championship ice skater. When renowned Russian figure skating coach Natasha Goberman offers to train her at the private school where she teaches, Katelin will do almost anything to take advantage of the opportunity - even join the girl's hockey team on scholarship.




Video
ID                                       : 2
Format                                   : AVC
Format/Info                              : Advanced Video Codec
Format profile                           : High@L3.1
Format settings, CABAC                   : Yes
Format settings, ReFrames                : 5 frames
Codec ID                                 : V_MPEG4/ISO/AVC
Duration                                 : 1h 28mn
Bit rate mode                            : Variable
Bit rate                                 : 4 500 Kbps
Width                                    : 1 280 pixels
Height                                   : 720 pixels
Display aspect ratio                     : 16:9
Frame rate mode                          : Constant
Frame rate                               : 23.976 (24000/1001) fps
Color space                              : YUV
Chroma subsampling                       : 4:2:0
Bit depth                                : 8 bits
Scan type                                : Progressive
Bits/(Pixel*Frame)                       : 0.204
Stream size                              : 2.75 GiB (87%)
Writing library                          : x264 core 148 r2623 d5b2374
Encoding settings                        : cabac=1 / ref=5 / deblock=1:-1:-1 / analyse=0x3:0x133 / me=umh / subme=9 / psy=1 / psy_rd=1.00:0.15 / mixed_ref=1 / me_range=24 / chroma_me=1 / trellis=2 / 8x8dct=1 / cqm=0 / deadzone=21,11 / fast_pskip=1 / chroma_qp_offset=-3 / threads=22 / lookahead_threads=3 / sliced_threads=0 / nr=150 / decimate=1 / interlaced=0 / bluray_compat=0 / constrained_intra=0 / bframes=8 / b_pyramid=2 / b_adapt=2 / b_bias=0 / direct=3 / weightb=1 / open_gop=0 / weightp=2 / keyint=120 / keyint_min=61 / scenecut=0 / intra_refresh=0 / rc_lookahead=120 / rc=crf / mbtree=1 / crf=18.0 / qcomp=0.60 / qpmin=0 / qpmax=69 / qpstep=4 / vbv_maxrate=4500 / vbv_bufsize=17500 / crf_max=0.0 / nal_hrd=vbr / filler=0 / ip_ratio=1.40 / aq=3:1.00
Default                                  : Yes
Forced                                   : No
Color range                              : Limited
Color primaries                          : BT.709
Transfer characteristics                 : BT.709
Matrix coefficients                      : BT.709

Audio
ID                                       : 1
Format                                   : E-AC-3
Format/Info                              : Audio Coding 3
Format settings, Endianness              : Big
Codec ID                                 : A_EAC3
Duration                                 : 1h 28mn
Bit rate mode                            : Constant
Bit rate                                 : 640 Kbps
Channel(s)                               : 6 channels
Channel positions                        : Front: L C R, Side: L R, LFE
Sampling rate                            : 48.0 KHz
Frame rate                               : 187.500 fps (256 spf)
Compression mode                         : Lossy
Stream size                              : 403 MiB (13%)
Language                                 : English
Default                                  : Yes
Forced                                   : No

Text
ID                                       : 3
Format                                   : UTF-8
Codec ID                                 : S_TEXT/UTF8
Codec ID/Info                            : UTF-8 Plain Text
Duration                                 : 1h 27mn
Bit rate                                 : 79 bps
Count of elements                        : 1930
Stream size                              : 51.3 KiB (0%)
Default                                  : Yes
Forced                                   : No





1 个附件 售价 大小 下载 时间

Go.Figure.2005.1080p.WEBRip.DD5.1.x264-TrollHD[btbtt.co].torrent 0 金币 63.50K 1475 次 11月前

#1楼
发帖时间:2017-01-11 09:57:52   |   回复数:3
911degrees
超凡入圣№
非常感谢,谢谢分享
11月前 #2楼
liyouchai
超凡入圣№
谢谢楼主分享资源
11月前 #3楼
blue23
隐世仙人♂
感谢楼主分享
11月前 #4楼
游客组