aoloffline
版主

[2013] [欧美] [纪录] [WEB-1080P] [BT下载]女力万岁 Femme.Women.Healing.The.World.2013.1080p.WEBRip.DD5.1.x264-TrollHD 4.

-->

◎译  名 女力万岁

◎片  名 Femme.Women.Healing.The.World

◎年  代 2013

◎国  家 美国

◎类  别 记录

◎语  言 英语

◎IMDb评分  6.8/10 from 33 users

◎IMDb链接  http://imdb.com/title/tt1851922/

◎BT之家整理 http://www.btbtt.co 

◎导  演 Emmanuel Itier

◎主  演 Sharon Stone ... Herself

      Maria Conchita Alonso ... Herself

      Joanna Angel ... Herelf

◎简  介


  現今女性意識抬頭,但過去社會男尊女卑的刻板印象深植人心,女性的權益與自主應該要被正視與發覺。本片由金球獎最佳女主角莎朗史東擔任監製,拍攝橫越五大洲,遍及二十多個國家,由諾貝爾和平獎得主希林伊巴迪、梅里德麥奎爾、茱蒂威廉斯,以及來自世界各地具有影響力的女性現身說法,觀點從宗教到天文科學,歷史文物,政黨政治,甚至娛樂與時事,她們證明了現代女性對當今社會的貢獻與影響力,女力萬歲讓我們的文化與社會變得更美好。這是一部身為女性應該要看的電影,也是一部讓男性更加了解女性的電影!


Video
ID                                       : 2
Format                                   : AVC
Format/Info                              : Advanced Video Codec
Format profile                           : High@L4
Format settings, CABAC                   : Yes
Format settings, ReFrames                : 4 frames
Codec ID                                 : V_MPEG4/ISO/AVC
Duration                                 : 1h 29mn
Bit rate mode                            : Variable
Bit rate                                 : 6 658 Kbps
Maximum bit rate                         : 15.0 Mbps
Width                                    : 1 920 pixels
Height                                   : 1 040 pixels
Display aspect ratio                     : 1.85:1
Frame rate mode                          : Constant
Frame rate                               : 23.976 (24000/1001) fps
Color space                              : YUV
Chroma subsampling                       : 4:2:0
Bit depth                                : 8 bits
Scan type                                : Progressive
Bits/(Pixel*Frame)                       : 0.139
Stream size                              : 4.15 GiB (91%)
Writing library                          : x264 core 148 r2623 d5b2374
Encoding settings                        : cabac=1 / ref=4 / deblock=1:-1:-1 / analyse=0x3:0x133 / me=umh / subme=9 / psy=1 / psy_rd=1.00:0.15 / mixed_ref=1 / me_range=24 / chroma_me=1 / trellis=2 / 8x8dct=1 / cqm=0 / deadzone=21,11 / fast_pskip=1 / chroma_qp_offset=-3 / threads=32 / lookahead_threads=5 / sliced_threads=0 / nr=150 / decimate=1 / interlaced=0 / bluray_compat=0 / constrained_intra=0 / bframes=8 / b_pyramid=2 / b_adapt=2 / b_bias=0 / direct=3 / weightb=1 / open_gop=0 / weightp=2 / keyint=120 / keyint_min=61 / scenecut=0 / intra_refresh=0 / rc_lookahead=120 / rc=crf / mbtree=1 / crf=18.0 / qcomp=0.60 / qpmin=0 / qpmax=69 / qpstep=4 / vbv_maxrate=15000 / vbv_bufsize=31250 / crf_max=0.0 / nal_hrd=vbr / filler=0 / ip_ratio=1.40 / aq=3:1.00
Default                                  : Yes
Forced                                   : No
Color range                              : Limited
Color primaries                          : BT.709
Transfer characteristics                 : BT.709
Matrix coefficients                      : BT.709

Audio
ID                                       : 1
Format                                   : E-AC-3
Format/Info                              : Audio Coding 3
Format settings, Endianness              : Big
Codec ID                                 : A_EAC3
Duration                                 : 1h 29mn
Bit rate mode                            : Constant
Bit rate                                 : 640 Kbps
Channel(s)                               : 6 channels
Channel positions                        : Front: L C R, Side: L R, LFE
Sampling rate                            : 48.0 KHz
Frame rate                               : 187.500 fps (256 spf)
Compression mode                         : Lossy
Stream size                              : 409 MiB (9%)
Language                                 : English
Default                                  : Yes
Forced                                   : No

Text
ID                                       : 3
Format                                   : UTF-8
Codec ID                                 : S_TEXT/UTF8
Codec ID/Info                            : UTF-8 Plain Text
Duration                                 : 1h 29mn
Bit rate                                 : 86 bps
Count of elements                        : 1167
Stream size                              : 56.6 KiB (0%)
Default                                  : Yes
Forced                                   : No






1 个附件 售价 大小 下载 时间

Femme.Women.Healing.The.World.2013.1080p.WEBRip.DD5.1.x264-TrollHD[btbtt.co].torrent 0 金币 91.70K 407 次 1月前

#1楼
发帖时间:2017-01-11 09:53:51   |   回复数:3
911degrees
一代宗师
非常感谢,谢谢分享
1月前 #2楼
liyouchai
一代宗师
谢谢楼主分享资源
1月前 #3楼
blue23
超凡入圣№
感谢楼主分享
1月前 #4楼
游客组