aoloffline
版主

[2015] [欧美] [喜剧] [WEB-1080P] [BT下载]Natasha.Leggero.Live.At.Bimbos.2015.1080p.WEBRip.DD2.0.x264-TrollHD 3.33GB

-->

◎译  名 

◎片  名 Natasha Leggero: Live at Bimbo's

◎年  代 2015

◎国  家 美国

◎类  别 喜剧

◎语  言 英语

◎上映日期 2015-08-22

◎IMDb评分  7.0/10 from 89 users

◎IMDb链接  http://www.imdb.com/title/tt4966020/

◎BT之家整理 http://www.btbtt.co 

◎豆瓣评分 6.9/10 from 49 users

◎豆瓣链接 https://movie.douban.com/subject/26598368/

◎主  演 娜塔莎·赖格罗 Natasha Leggero


◎简  介


  脱口秀



Video
ID                                       : 2
Format                                   : AVC
Format/Info                              : Advanced Video Codec
Format profile                           : High@L4
Format settings, CABAC                   : Yes
Format settings, ReFrames                : 4 frames
Codec ID                                 : V_MPEG4/ISO/AVC
Duration                                 : 41mn 44s
Bit rate mode                            : Variable
Bit rate                                 : 11.2 Mbps
Maximum bit rate                         : 15.0 Mbps
Width                                    : 1 920 pixels
Height                                   : 1 080 pixels
Display aspect ratio                     : 16:9
Frame rate mode                          : Constant
Frame rate                               : 23.976 (24000/1001) fps
Color space                              : YUV
Chroma subsampling                       : 4:2:0
Bit depth                                : 8 bits
Scan type                                : Progressive
Bits/(Pixel*Frame)                       : 0.225
Stream size                              : 3.26 GiB (98%)
Writing library                          : x264 core 148 r2623 d5b2374
Encoding settings                        : cabac=1 / ref=4 / deblock=1:-1:-1 / analyse=0x3:0x133 / me=umh / subme=9 / psy=1 / psy_rd=1.00:0.15 / mixed_ref=1 / me_range=24 / chroma_me=1 / trellis=2 / 8x8dct=1 / cqm=0 / deadzone=21,11 / fast_pskip=1 / chroma_qp_offset=-3 / threads=34 / lookahead_threads=5 / sliced_threads=0 / nr=150 / decimate=1 / interlaced=0 / bluray_compat=0 / constrained_intra=0 / bframes=8 / b_pyramid=2 / b_adapt=2 / b_bias=0 / direct=3 / weightb=1 / open_gop=0 / weightp=2 / keyint=120 / keyint_min=61 / scenecut=0 / intra_refresh=0 / rc_lookahead=120 / rc=crf / mbtree=1 / crf=18.0 / qcomp=0.60 / qpmin=0 / qpmax=69 / qpstep=4 / vbv_maxrate=15000 / vbv_bufsize=31250 / crf_max=0.0 / nal_hrd=vbr / filler=0 / ip_ratio=1.40 / aq=3:1.00
Default                                  : Yes
Forced                                   : No
Color range                              : Limited
Color primaries                          : BT.709
Transfer characteristics                 : BT.709
Matrix coefficients                      : BT.709

Audio
ID                                       : 1
Format                                   : E-AC-3
Format/Info                              : Audio Coding 3
Format settings, Endianness              : Big
Codec ID                                 : A_EAC3
Duration                                 : 41mn 44s
Bit rate mode                            : Constant
Bit rate                                 : 224 Kbps
Channel(s)                               : 2 channels
Channel positions                        : Front: L R
Sampling rate                            : 48.0 KHz
Frame rate                               : 187.500 fps (256 spf)
Compression mode                         : Lossy
Stream size                              : 66.9 MiB (2%)
Language                                 : English
Default                                  : Yes
Forced                                   : No

Text
ID                                       : 3
Format                                   : UTF-8
Codec ID                                 : S_TEXT/UTF8
Codec ID/Info                            : UTF-8 Plain Text
Duration                                 : 41mn 6s
Bit rate                                 : 106 bps
Count of elements                        : 884
Stream size                              : 32.2 KiB (0%)
Default                                  : Yes
Forced                                   : No





1 个附件 售价 大小 下载 时间

Natasha.Leggero.Live.At.Bimbos.2015.1080p.WEBRip.DD2.0.x264-TrollHD[btbtt.co].torrent 0 金币 67.23K 266 次 9天前

#1楼
发帖时间:2017-01-11 09:35:19   |   回复数:3
911degrees
一代宗师
非常感谢,谢谢分享
9天前 #2楼
liyouchai
一代宗师
谢谢楼主分享资源
9天前 #3楼
blue23
超凡入圣№
感谢楼主分享
8天前 #4楼
游客组