小Q呆
版主

[2016] [欧美] [悬疑] [BD-720P] [BT下载]但丁密码 Inferno.2016.BluRay.720p.x264.DTS-HDChina 6.57GB

-->



◎译  名 但丁密码/地狱(台)/地狱解码(港)

◎片  名 Inferno

◎年  代 2016

◎国  家 美国/匈牙利

◎类  别 悬疑/惊悚

◎语  言 英语/法语/意大利语/土耳其语

◎上映日期 2016-10-28(中国大陆/美国)

◎IMDb评分  6.2/10 from 56,874 users

◎IMDb链接  http://www.imdb.com/title/tt3062096/

◎豆瓣评分 6.3/10 from 36,201 users

◎豆瓣链接 https://movie.douban.com/subject/24860318/

◎片  长 122分钟

◎导  演 朗·霍华德 Ron Howard

◎主  演 汤姆·汉克斯 Tom Hanks

      费莉西蒂·琼斯 Felicity Jones

      本·福斯特 Ben Foster

      奥玛·赛 Omar Sy

      伊尔凡·可汗 Irrfan Khan

      西德斯·巴比特·科努德森 Sidse Babett Knudsen

      安娜·乌拉鲁 Ana Ularu

      沃尔夫冈·施特格曼 Wolfgang Stegemann

      阿提拉·阿帕 Attila Árpa

      乔恩·多纳休 Jon Donahue


◎简  介


  《但丁密码》改编自丹·布朗2013年的小说《地狱》,讲述了符号学教授罗伯特·兰登(汤姆·汉克斯 Tom Hanks 饰)在意大利一所医院中醒来,发觉自己头部受到重创且失忆,同时还受到多组人马追杀,女医生西恩娜·布鲁克斯(费莉西蒂·琼斯 Felicity Jones 饰)帮助他逃出医院,寻回记忆,在这一过程中发现隐藏在但丁、米开朗琪罗等大师作品里的一个惊天阴谋,有极端邪恶的科学家妄图利用病毒把地球变成但丁《神曲》中描绘的地狱。


Complete name : Inferno.2016.BluRay.720p.x264.DTS-HDChina.mkv
Format : Matroska
Format version : Version 2
File size : 6.57 GiB
Duration : 2 h 1 min
Overall bit rate : 7 732 kb/s
Movie name : Inferno.2016.BluRay.720p.x264.DTS-HDChina
Encoded date : UTC 2017-01-09 12:14:31
Writing application : mkvmerge v5.8.0 (\'No Sleep / Pillow\') built on Sep 2 2012 15:37:04
Writing library : libebml v1.2.3 + libmatroska v1.3.0

Video
ID : 1
Format : AVC
Format/Info : Advanced Video Codec
Format profile : High@L4.1
Format settings, CABAC : Yes
Format settings, ReFrames : 9 frames
Codec ID : V_MPEG4/ISO/AVC
Duration : 2 h 1 min
Bit rate : 6 200 kb/s
Width : 1 280 pixels
Height : 692 pixels
Display aspect ratio : 1.85:1
Frame rate mode : Constant
Frame rate : 23.976 (24000/1001) FPS
Color space : YUV
Chroma subsampling : 4:2:0
Bit depth : 8 bits
Scan type : Progressive
Bits/(Pixel*Frame) : 0.292
Stream size : 5.15 GiB (78%)
Writing library : x264 core 148 r2744kMod b97ae06
Encoding settings : cabac=1 / ref=9 / deblock=1:-3:-3 / analyse=0x3:0x133 / me=umh / subme=11 / psy=1 / fade_compensate=0.00 / psy_rd=1.05:0.00 / mixed_ref=1 / me_range=48 / chroma_me=1 / trellis=2 / 8x8dct=1 / cqm=0 / deadzone=21,11 / fast_pskip=0 / chroma_qp_offset=-2 / threads=12 / lookahead_threads=2 / sliced_threads=0 / nr=0 / decimate=0 / interlaced=0 / bluray_compat=0 / constrained_intra=0 / bframes=8 / b_pyramid=2 / b_adapt=2 / b_bias=0 / direct=3 / weightb=1 / open_gop=0 / weightp=2 / keyint=240 / keyint_min=2 / scenecut=40 / intra_refresh=0 / rc_lookahead=0 / rc=2pass / mbtree=0 / bitrate=6200 / ratetol=1.0 / qcomp=0.70 / qpmin=0 / qpmax=69 / qpstep=4 / cplxblur=20.0 / qblur=0.5 / vbv_maxrate=50000 / vbv_bufsize=30000 / nal_hrd=none / filler=0 / ip_ratio=1.25 / pb_ratio=1.20 / aq=3:0.80
Default : Yes
Forced : No

Audio
ID : 2
Format : DTS
Format/Info : Digital Theater Systems
Mode : 16
Format settings, Endianness : Big
Codec ID : A_DTS
Duration : 2 h 1 min
Bit rate mode : Constant
Bit rate : 1 509 kb/s
Channel(s) : 6 channels
Channel positions : Front: L C R, Side: L R, LFE
Sampling rate : 48.0 kHz
Frame rate : 93.750 FPS (512 spf)
Bit depth : 16 bits
Compression mode : Lossy
Stream size : 1.28 GiB (20%)
Language : English
Default : Yes
Forced : No

Text
ID : 3
Format : PGS
Muxing mode : zlib
Codec ID : S_HDMV/PGS
Codec ID/Info : Picture based subtitle format used on BDs/HD-DVDs
Language : English
Default : Yes
Forced : No

Menu
00:00:00.000 : en:00:00:00.000
00:04:13.545 : en:00:04:13.545
00:12:32.919 : en:00:12:32.919
00:23:43.005 : en:00:23:43.005
00:36:03.161 : en:00:36:03.161
00:51:11.652 : en:00:51:11.652
00:59:16.595 : en:00:59:16.595
01:01:42.908 : en:01:01:42.908
01:07:42.517 : en:01:07:42.517
01:13:25.234 : en:01:13:25.234
01:20:02.256 : en:01:20:02.256
01:24:37.364 : en:01:24:37.364
01:31:25.271 : en:01:31:25.271
01:35:42.111 : en:01:35:42.111
01:40:51.128 : en:01:40:51.128
01:52:27.908 : en:01:52:27.908

Screens.png

Click Image To View Full Size

ebAAt.th.jpg
Click To View Screenshot
Click To View Screenshot
Click To View Screenshot


1 个附件 售价 大小 下载 时间

Inferno.2016.BluRay.720p.x264.DTS-HDChina[btbtt.co].torrent 0 金币 9.39K 2684 次 4月前

#1楼
发帖时间:2017-01-10 23:51:47   |   回复数:4
Jasongreat
一派掌门
谢谢楼主的分享,总算是等到蓝光版本的了
4月前 #2楼
liyouchai
超凡入圣№
谢谢楼主分享资源
4月前 #3楼
911degrees
一代宗师
非常感谢,谢谢分享
4月前 #4楼
blue23
超凡入圣№
感谢楼主分享
4月前 #5楼
游客组