aoloffline
版主

[2016] [欧美] [纪录] [WEB-1080P] [BT下载]明亮之星:主演凯莉·费雪和戴比·雷诺兹 2016.1080p.WEBRip.DD5.1.x264-monkee 2.6GB

-->

◎译  名 明亮之星:主演凯莉·费雪和戴比·雷诺兹

◎片  名 Bright Lights: Starring Carrie Fischer and Debbie Reynolds

◎年  代 2016

◎国  家 美国

◎类  别 纪录片

◎语  言 英语

◎上映日期 2016-05-14(戛纳电影节)/2016-01-07(美国)

◎IMDb评分  8.3/10 from 714 users

◎IMDb链接  http://www.imdb.com/title/tt5651050/

◎豆瓣评分 8.7/10 from 11 users

◎豆瓣链接 https://movie.douban.com/subject/26776166/

◎BT之家整理 http://www.btbtt.co 

◎片  长 95分钟

◎导  演 亚历克西斯·布鲁姆 Alexis Bloom / 费舍·史蒂芬斯 Fisher Stevens

◎主  演 凯丽·费雪 Carrie Fisher

      黛比·雷诺斯 Debbie Reynolds


◎简  介


  《Bright Lights》长达95分钟,将带领观众走近费雪与雷诺斯的日常生活,纪录了她们在2014年至2015年间的故事,从费雪开拍《星球大战:原力觉醒》直至雷诺斯去年荣获演员工会终身成就奖。


Video
ID                                       : 1
Format                                   : AVC
Format/Info                              : Advanced Video Codec
Format profile                           : High@L4
Format settings, CABAC                   : Yes
Format settings, ReFrames                : 4 frames
Codec ID                                 : V_MPEG4/ISO/AVC
Duration                                 : 1h 34mn
Bit rate mode                            : Variable
Bit rate                                 : 3 566 Kbps
Maximum bit rate                         : 4 510 Kbps
Width                                    : 1 920 pixels
Height                                   : 1 080 pixels
Display aspect ratio                     : 16:9
Frame rate mode                          : Constant
Frame rate                               : 23.976 (24000/1001) fps
Color space                              : YUV
Chroma subsampling                       : 4:2:0
Bit depth                                : 8 bits
Scan type                                : Progressive
Bits/(Pixel*Frame)                       : 0.072
Stream size                              : 2.36 GiB (90%)
Default                                  : Yes
Forced                                   : No

Audio
ID                                       : 2
Format                                   : AC-3
Format/Info                              : Audio Coding 3
Mode extension                           : CM (complete main)
Format settings, Endianness              : Big
Codec ID                                 : A_AC3
Duration                                 : 1h 34mn
Bit rate mode                            : Constant
Bit rate                                 : 384 Kbps
Channel(s)                               : 6 channels
Channel positions                        : Front: L C R, Side: L R, LFE
Sampling rate                            : 48.0 KHz
Frame rate                               : 31.250 fps (1536 spf)
Compression mode                         : Lossy
Stream size                              : 260 MiB (10%)
Language                                 : English
Default                                  : Yes
Forced                                   : No

Text
ID                                       : 3
Format                                   : UTF-8
Codec ID                                 : S_TEXT/UTF8
Codec ID/Info                            : UTF-8 Plain Text
Duration                                 : 1h 34mn
Bit rate                                 : 141 bps
Count of elements                        : 1965
Stream size                              : 97.8 KiB (0%)
Language                                 : English
Default                                  : No
Forced                                   : No





1 个附件 售价 大小 下载 时间

Bright.Lights.Starring.Carrie.Fisher.2016.1080p.WEBRip.DD5.1.x264-monkee[btbtt.co].torrent 0 金币 52.93K 870 次 11月前

#1楼
发帖时间:2017-01-10 23:48:10   |   回复数:4
liyouchai
超凡入圣№
谢谢楼主分享资源
11月前 #2楼
chulps
一代宗师
good ... Thanks a lot ! 感谢楼主 ! 感谢 !
11月前 #3楼
911degrees
超凡入圣№
非常感谢,谢谢分享
11月前 #4楼
blue23
隐世仙人♂
感谢楼主分享
11月前 #5楼
游客组