aoloffline
版主

[2010] [欧美] [喜剧] [WEB-1080P] [BT下载]愛凡隆高校 Avalon.High.2010.1080p.WEBRip.DD5.1.x264-TrollHD 8.5GB

-->


◎译  名 愛凡隆高校

◎片  名 Avalon High

◎年  代 2010

◎国  家 美国

◎类  别 喜剧/家庭/儿童

◎语  言 英语

◎上映日期 2010-11-12

◎IMDb评分  5.8/10 from 3,931 users

◎IMDb链接  http://www.imdb.com/title/tt1614950/

◎豆瓣评分 4.5/10 from 66 users

◎豆瓣链接 https://movie.douban.com/subject/5155058/

◎BT之家整理 http://www.btbtt.co 

◎导  演 Stuart Gillard

◎主  演 布丽特妮·罗伯森 Brittany Robertson

      Gregg Sulkin

      乔伊·保罗瑞 Joey Pollari

      德文·格拉耶 Devon Graye

      莫莉·奎恩 Molly C. Quinn

      Christopher Tavarez


◎简  介


  故事從女主角 Allie Pennington 轉學到愛凡隆高中說起,她逐漸發現這邊的同學身手不凡,原來是由亞瑟王和他身旁的圓桌武士所轉世,而且不只是前世今生的輪迴轉世,彼此的關係似乎也貫穿古今、似曾相似。在和由亞瑟王轉世的 Will Wagner 結識之後,Allie 決定要幫助他阻止邪惡勢力的蔓延,不讓歷史重蹈覆轍。本片故事以亞瑟王的傳奇故事為軸心,充滿史詩色彩,再加上輪迴轉世古往今來的神祕色彩,讓這群不平凡的高中生,展開一段精彩萬分的高中生涯。



Video
ID                                       : 2
Format                                   : AVC
Format/Info                              : Advanced Video Codec
Format profile                           : High@L4
Format settings, CABAC                   : Yes
Format settings, ReFrames                : 4 frames
Codec ID                                 : V_MPEG4/ISO/AVC
Duration                                 : 1h 29mn
Bit rate mode                            : Variable
Bit rate                                 : 13.0 Mbps
Maximum bit rate                         : 15.0 Mbps
Width                                    : 1 920 pixels
Height                                   : 1 080 pixels
Display aspect ratio                     : 16:9
Frame rate mode                          : Constant
Frame rate                               : 23.976 (24000/1001) fps
Color space                              : YUV
Chroma subsampling                       : 4:2:0
Bit depth                                : 8 bits
Scan type                                : Progressive
Bits/(Pixel*Frame)                       : 0.261
Stream size                              : 8.11 GiB (95%)
Writing library                          : x264 core 148 r2623 d5b2374
Encoding settings                        : cabac=1 / ref=4 / deblock=1:-1:-1 / analyse=0x3:0x133 / me=umh / subme=9 / psy=1 / psy_rd=1.00:0.15 / mixed_ref=1 / me_range=24 / chroma_me=1 / trellis=2 / 8x8dct=1 / cqm=0 / deadzone=21,11 / fast_pskip=1 / chroma_qp_offset=-3 / threads=34 / lookahead_threads=5 / sliced_threads=0 / nr=150 / decimate=1 / interlaced=0 / bluray_compat=0 / constrained_intra=0 / bframes=8 / b_pyramid=2 / b_adapt=2 / b_bias=0 / direct=3 / weightb=1 / open_gop=0 / weightp=2 / keyint=120 / keyint_min=61 / scenecut=0 / intra_refresh=0 / rc_lookahead=120 / rc=crf / mbtree=1 / crf=18.0 / qcomp=0.60 / qpmin=0 / qpmax=69 / qpstep=4 / vbv_maxrate=15000 / vbv_bufsize=31250 / crf_max=0.0 / nal_hrd=vbr / filler=0 / ip_ratio=1.40 / aq=3:1.00
Default                                  : Yes
Forced                                   : No
Color range                              : Limited
Color primaries                          : BT.709
Transfer characteristics                 : BT.709
Matrix coefficients                      : BT.709

Audio
ID                                       : 1
Format                                   : E-AC-3
Format/Info                              : Audio Coding 3
Format settings, Endianness              : Big
Codec ID                                 : A_EAC3
Duration                                 : 1h 29mn
Bit rate mode                            : Constant
Bit rate                                 : 640 Kbps
Channel(s)                               : 6 channels
Channel positions                        : Front: L C R, Side: L R, LFE
Sampling rate                            : 48.0 KHz
Frame rate                               : 187.500 fps (256 spf)
Compression mode                         : Lossy
Stream size                              : 410 MiB (5%)
Language                                 : English
Default                                  : Yes
Forced                                   : No





1 个附件 售价 大小 下载 时间

Avalon.High.2010.1080p.WEBRip.DD5.1.x264-TrollHD[btbtt.co].torrent 0 金币 85.69K 501 次 1月前

#1楼
发帖时间:2017-01-10 23:32:00   |   回复数:4
liyouchai
一代宗师
谢谢楼主分享资源
1月前 #2楼
911degrees
一代宗师
非常感谢,谢谢分享
1月前 #3楼
blue23
超凡入圣№
感谢楼主分享
1月前 #4楼
hljwsq
一派掌门
谢谢分享
1月前 #5楼
游客组