aoloffline
版主

[2016] [欧美] [惊悚] [WEB-1080P] [BT下载]绝望之室/鬼开门 The.Disappointments.Room.2016.1080p.WEB-DL.DD5.1.H264-FGT 2.9GB

-->

◎译  名 绝望之室/鬼开门(台)

◎片  名 The Disappointments Room

◎年  代 2016

◎国  家 美国

◎类  别 剧情/惊悚

◎语  言 英语

◎上映日期 2016-09-09(美国)

◎IMDb评分  4.0/10 from 1,935 users

◎IMDb链接  http://www.imdb.com/title/tt2364897/

◎豆瓣评分 4.3/10 from 102 users

◎豆瓣链接 https://movie.douban.com/subject/22984298/

◎BT之家整理 http://www.btbtt.co 

◎导  演 D·J·卡卢索 D.J. Caruso

◎主  演 凯特·贝金赛尔 Kate Beckinsale

      米谢拉·康琳 Michaela Conlin

      梅丽莎·伊斯特伍德 Melissa Eastwood

      迈克尔·兰德斯 Michael Landes

      杰拉尔德·麦克雷尼 Gerald McRaney

      卢卡斯·提尔 Lucas Till


◎简  介


  影片由凯特·贝金赛尔主演,一位母亲与她的儿子在乡下的新宅遭遇的恐怖事件,号称真实事件改编。


Video
ID                                       : 1
Format                                   : AVC
Format/Info                              : Advanced Video Codec
Format profile                           : High@L4
Format settings, CABAC                   : Yes
Format settings, ReFrames                : 5 frames
Codec ID                                 : V_MPEG4/ISO/AVC
Duration                                 : 1h 25mn
Bit rate                                 : 4 509 Kbps
Width                                    : 1 916 pixels
Height                                   : 800 pixels
Display aspect ratio                     : 2.40:1
Frame rate mode                          : Constant
Frame rate                               : 23.976 fps
Color space                              : YUV
Chroma subsampling                       : 4:2:0
Bit depth                                : 8 bits
Scan type                                : Progressive
Bits/(Pixel*Frame)                       : 0.123
Stream size                              : 2.68 GiB (90%)
Title                                    : The.Disappointments.Room.2016.1080p.WEB-DL.DD5.1.H264-FGT
Language                                 : English
Default                                  : Yes
Forced                                   : No
Color range                              : Limited
Color primaries                          : BT.709
Transfer characteristics                 : BT.709
Matrix coefficients                      : BT.709

Audio
ID                                       : 2
Format                                   : AC-3
Format/Info                              : Audio Coding 3
Mode extension                           : CM (complete main)
Format settings, Endianness              : Big
Codec ID                                 : A_AC3
Duration                                 : 1h 25mn
Bit rate mode                            : Constant
Bit rate                                 : 384 Kbps
Channel(s)                               : 6 channels
Channel positions                        : Front: L C R, Side: L R, LFE
Sampling rate                            : 48.0 KHz
Frame rate                               : 31.250 fps (1536 spf)
Compression mode                         : Lossy
Stream size                              : 234 MiB (8%)
Title                                    : The.Disappointments.Room.2016.1080p.WEB-DL.DD5.1.H264-FGT
Language                                 : English
Default                                  : Yes
Forced                                   : No

Text
ID                                       : 3
Format                                   : UTF-8
Codec ID                                 : S_TEXT/UTF8
Codec ID/Info                            : UTF-8 Plain Text
Language                                 : English
Default                                  : Yes
Forced                                   : No

Menu
00:00:00.000                             : en:1
00:09:45.000                             : en:2
00:22:55.000                             : en:3
00:34:58.000                             : en:4
00:50:09.000                             : en:5
01:04:01.000                             : en:6
01:14:46.000                             : en:7





1 个附件 售价 大小 下载 时间

The.Disappointments.Room.2016.1080p.WEB-DL.DD5.1.H264-FGT[btbtt.co].torrent 0 金币 60.07K 1874 次 9月前

#1楼
发帖时间:2017-01-10 16:24:23   |   回复数:3
911degrees
一代宗师
非常感谢,谢谢分享
9月前 #2楼
liyouchai
超凡入圣№
谢谢楼主分享资源
9月前 #3楼
blue23
隐世仙人♂
感谢楼主分享
9月前 #4楼
游客组