aoloffline
版主

[2017] [欧美] [喜剧] [WEB-1080P] [BT下载]Hickey.2017.1080p.WEB-DL.DD5.1.H264-FGT 2.78 GB

-->

◎译  名 

◎片  名 Hickey

◎年  代 2017

◎国  家 美国

◎类  别 喜剧

◎语  言 英语

◎IMDb评分  7.4/10 from 8 users

◎IMDb链接  http://www.imdb.com/title/tt2122355/

◎BT之家整理 http://www.btbtt.co 

◎片  长 1h 25min 

◎导  演 Alex Grossman

◎主  演 Troy Doherty ... Ryan Chess

      Flavia Watson ... Carly

      Raychel Diane Weiner ... Ellen Blum

      Zedrick Restauro ... Jeremy


◎简  介


  Brilliant but insecure| young Ryan has 24 hours to save the store he hates in order to win the heart of the girl he loves.



Video
ID                                       : 1
Format                                   : AVC
Format/Info                              : Advanced Video Codec
Format profile                           : High@L4
Format settings, CABAC                   : Yes
Format settings, ReFrames                : 5 frames
Codec ID                                 : V_MPEG4/ISO/AVC
Duration                                 : 1h 20mn
Bit rate                                 : 4 467 Kbps
Width                                    : 1 920 pixels
Height                                   : 792 pixels
Display aspect ratio                     : 2.40:1
Frame rate mode                          : Constant
Frame rate                               : 23.976 fps
Color space                              : YUV
Chroma subsampling                       : 4:2:0
Bit depth                                : 8 bits
Scan type                                : Progressive
Bits/(Pixel*Frame)                       : 0.123
Stream size                              : 2.51 GiB (90%)
Title                                    : Hickey.2017.1080p.WEB-DL.DD5.1.H264-FGT
Language                                 : English
Default                                  : Yes
Forced                                   : No
Color range                              : Limited
Color primaries                          : BT.709
Transfer characteristics                 : BT.709
Matrix coefficients                      : BT.709

Audio
ID                                       : 2
Format                                   : AC-3
Format/Info                              : Audio Coding 3
Mode extension                           : CM (complete main)
Format settings, Endianness              : Big
Codec ID                                 : A_AC3
Duration                                 : 1h 20mn
Bit rate mode                            : Constant
Bit rate                                 : 384 Kbps
Channel(s)                               : 6 channels
Channel positions                        : Front: L C R, Side: L R, LFE
Sampling rate                            : 48.0 KHz
Frame rate                               : 31.250 fps (1536 spf)
Compression mode                         : Lossy
Stream size                              : 221 MiB (8%)
Title                                    : Hickey.2017.1080p.WEB-DL.DD5.1.H264-FGT
Language                                 : English
Default                                  : Yes
Forced                                   : No

Text
ID                                       : 3
Format                                   : UTF-8
Codec ID                                 : S_TEXT/UTF8
Codec ID/Info                            : UTF-8 Plain Text
Language                                 : English
Default                                  : Yes
Forced                                   : No

Menu
00:00:00.000                             : en:Opening Sequence
00:07:54.000                             : en:We\'re Closing Shop
00:13:55.000                             : en:This Place Is A Mess
00:20:54.000                             : en:Open Your Mind
00:28:57.000                             : en:Let\'s Dance
00:35:58.000                             : en:No Return
00:40:46.000                             : en:Why Are You Here?
00:45:15.000                             : en:You Are My Problem
00:54:12.000                             : en:Find Another Reason
01:02:17.000                             : en:What Ever You Want
01:09:41.000                             : en:Is It Still Open?
01:17:25.000                             : en:End Credits






1 个附件 售价 大小 下载 时间

Hickey.2017.1080p.WEB-DL.DD5.1.H264-FGT[btbtt.co].torrent 0 金币 56.25K 1209 次 5月前

#1楼
发帖时间:2017-01-10 14:48:24   |   回复数:2
liyouchai
超凡入圣№
谢谢楼主分享资源
5月前 #2楼
blue23
超凡入圣№
感谢楼主分享
5月前 #3楼
游客组