小Q呆
版主

[更 早] [欧美] [惊悚] [BD-720P] [BT下载]谍网亡魂/夹在中间的人 The.Man.Between.1953.720p.BluRay.x264-GHOULS 4.43GB

-->

◎译  名 谍网亡魂

◎片  名 The Man Between

◎年  代 1953

◎国  家 英国

◎类  别 剧情/惊悚

◎语  言 英语/德语/俄语

◎上映日期 1953-10-19

◎IMDb评分  7.2/10 from 981 users

◎IMDb链接  http://www.imdb.com/title/tt0046031/

◎豆瓣评分 7.2/10 from 11 users

◎豆瓣链接 https://movie.douban.com/subject/3121446/

◎BT之家整理 http://www.btbtt.co

◎片  长 100 分钟

◎导  演 卡罗尔·里德 Carol Reed

◎主  演 James Mason


◎简  介


  伊沃·科恩(詹姆斯·梅森)是一名律师,曾是纳粹的帮凶,但现在他站到了德国共产党那一边,帮助一些“运送”一些人从西德到东德。尽管科恩本人想要留在西方,但由于过去的污点而不被接收,他成为了一名“夹在中间的人”。一次行动失败之后,科恩的上司错误地绑架了英国女子苏珊娜·玛丽森(克莱尔·布鲁姆)。这让科恩看到了机会,如果能救出这名女子,他也许能够得到西方社会的原谅。尽管居心不良,科恩还是得到了苏珊娜的爱情与理解,后者相信他的本质是善良的。最终,当距离西德的入口只有一步之遥,藏在卡车中的两人被发现了。科恩为了让玛丽森回到西方而不惜献出自己的生命。


Complete name : the.man.between.1953.720p.bluray.x264-ghouls.mkv
Format : Matroska
Format version : Version 4 / Version 2
File size : 4.37 GiB
Duration : 1 h 42 min
Overall bit rate : 6 114 kb/s
Encoded date : UTC 2017-01-09 09:24:58
Writing application : mkvmerge v9.7.1 (\'Pandemonium\') 32bit
Writing library : libebml v1.3.4 + libmatroska v1.4.5

Video
ID : 2
Format : AVC
Format/Info : Advanced Video Codec
Format profile : High@L4.1
Format settings, CABAC : Yes
Format settings, ReFrames : 5 frames
Codec ID : V_MPEG4/ISO/AVC
Duration : 1 h 42 min
Bit rate : 5 472 kb/s
Width : 992 pixels
Height : 720 pixels
Display aspect ratio : 1.378
Frame rate mode : Constant
Frame rate : 24.000 FPS
Color space : YUV
Chroma subsampling : 4:2:0
Bit depth : 8 bits
Scan type : Progressive
Bits/(Pixel*Frame) : 0.319
Stream size : 3.83 GiB (88%)
Writing library : x264 core 148 r2744 b97ae06
Encoding settings : cabac=1 / ref=5 / deblock=1:-3:-3 / analyse=0x3:0x133 / me=umh / subme=8 / psy=1 / psy_rd=1.00:0.00 / mixed_ref=1 / me_range=16 / chroma_me=1 / trellis=1 / 8x8dct=1 / cqm=0 / deadzone=21,11 / fast_pskip=0 / chroma_qp_offset=-2 / threads=6 / lookahead_threads=1 / sliced_threads=0 / nr=0 / decimate=1 / interlaced=0 / bluray_compat=0 / constrained_intra=0 / bframes=3 / b_pyramid=2 / b_adapt=1 / b_bias=0 / direct=3 / weightb=1 / open_gop=0 / weightp=2 / keyint=240 / keyint_min=24 / scenecut=40 / intra_refresh=0 / rc_lookahead=50 / rc=2pass / mbtree=1 / bitrate=5472 / ratetol=1.0 / qcomp=0.60 / qpmin=0 / qpmax=69 / qpstep=4 / cplxblur=20.0 / qblur=0.5 / vbv_maxrate=62500 / vbv_bufsize=78125 / nal_hrd=none / filler=0 / ip_ratio=1.40 / aq=1:1.00
Default : Yes
Forced : No

Audio
ID : 1
Format : AC-3
Format/Info : Audio Coding 3
Mode extension : CM (complete main)
Format settings, Endianness : Big
Codec ID : A_AC3
Duration : 1 h 42 min
Bit rate mode : Constant
Bit rate : 640 kb/s
Channel(s) : 1 channel
Channel positions : Front: C
Sampling rate : 48.0 kHz
Frame rate : 31.250 FPS (1536 spf)
Compression mode : Lossy
Stream size : 469 MiB (10%)
Language : English
Default : Yes
Forced : No

Menu
00:00:00.000 : en:00:00:00.000
00:10:47.417 : en:00:10:47.417
00:25:59.875 : en:00:25:59.875
00:44:00.958 : en:00:44:00.958
00:57:32.208 : en:00:57:32.208
01:11:08.250 : en:01:11:08.250
01:21:48.000 : en:01:21:48.000
01:35:42.917 : en:01:35:42.917

Screens.png

Click Image To View Full Size

ezhkX.th.jpg
Click To View Screenshot
Click To View Screenshot
Click To View Screenshot


1 个附件 售价 大小 下载 时间

The.Man.Between.1953.720p.BluRay.x264-GHOULS[btbtt.co].torrent 0 金币 6.53K 578 次 5月前

#1楼
发帖时间:2017-01-10 14:03:49   |   回复数:4
911degrees
一代宗师
非常感谢,谢谢分享
5月前 #2楼
liyouchai
超凡入圣№
谢谢楼主分享资源
5月前 #3楼
blue23
超凡入圣№
感谢楼主分享
5月前 #4楼
blue23
超凡入圣№
感谢楼主分享
5月前 #5楼
游客组