aoloffline
版主

[2016] [欧美] [剧情] [WEB-1080P] [BT下载]克里斯汀/绝望直播 Christine.2016.1080p.WEB-DL.DD5.1.H264-FGT 4.67GB

-->

◎译  名 克里斯汀/绝望直播(港)

◎片  名 Christine

◎年  代 2016

◎国  家 美国

◎类  别 剧情/传记

◎语  言 英语

◎上映日期 2016-01-23 (美国)

◎IMDb评分  7.3/10 from 857 users

◎IMDb链接  http://www.imdb.com/title/tt4666726/

◎豆瓣评分 6.8/10 from 39 users

◎豆瓣链接 https://movie.douban.com/subject/26653277/

◎BT之家整理 http://www.btbtt.co

◎片  长 115分钟

◎导  演 Antonio Campos

◎主  演 丽贝卡·豪尔 Rebecca Hall

      迈克尔·C·豪尔 Michael C. Hall

      蒂莫西·西蒙斯 Timothy Simons

      玛丽亚·迪齐亚 Maria Dizzia

      金肖 Kim Shaw

      蕾切尔·亨德里克斯 Rachel Hendrix

      崔西·莱茨 Tracy Letts

      摩根.斯佩克特 Morgan Spector

      约翰·卡伦 John Cullum

      J·史密斯-卡梅隆 J. Smith-Cameron

      Susan Pourfar


◎简  介


  讲述上世纪70年代电视记者Christine Chubbuck的生平。


◎获奖情况


  第32届圣丹斯电影节  (2016)

  评审团大奖 剧情片(提名)


  第32届美国独立精神奖  (2017)

  最佳处女作剧本(提名) Craig Shilowich


Video
ID                                       : 1
Format                                   : AVC
Format/Info                              : Advanced Video Codec
Format profile                           : High@L4
Format settings, CABAC                   : Yes
Format settings, ReFrames                : 4 frames
Codec ID                                 : V_MPEG4/ISO/AVC
Duration                                 : 1h 59mn
Bit rate                                 : 5 119 Kbps
Width                                    : 1 920 pixels
Height                                   : 1 080 pixels
Display aspect ratio                     : 16:9
Frame rate mode                          : Constant
Frame rate                               : 23.976 fps
Color space                              : YUV
Chroma subsampling                       : 4:2:0
Bit depth                                : 8 bits
Scan type                                : Progressive
Bits/(Pixel*Frame)                       : 0.103
Stream size                              : 4.26 GiB (91%)
Title                                    : Christine.2016.1080p.WEB-DL.DD5.1.H264-FGT
Language                                 : English
Default                                  : Yes
Forced                                   : No
Color range                              : Limited
Color primaries                          : BT.709
Transfer characteristics                 : BT.709
Matrix coefficients                      : BT.709

Audio
ID                                       : 2
Format                                   : AC-3
Format/Info                              : Audio Coding 3
Mode extension                           : CM (complete main)
Format settings, Endianness              : Big
Codec ID                                 : A_AC3
Duration                                 : 1h 59mn
Bit rate mode                            : Constant
Bit rate                                 : 384 Kbps
Channel(s)                               : 6 channels
Channel positions                        : Front: L C R, Side: L R, LFE
Sampling rate                            : 48.0 KHz
Frame rate                               : 31.250 fps (1536 spf)
Compression mode                         : Lossy
Stream size                              : 327 MiB (7%)
Title                                    : Christine.2016.1080p.WEB-DL.DD5.1.H264-FGT
Language                                 : English
Default                                  : Yes
Forced                                   : No

Text
ID                                       : 3
Format                                   : UTF-8
Codec ID                                 : S_TEXT/UTF8
Codec ID/Info                            : UTF-8 Plain Text
Language                                 : English
Default                                  : Yes
Forced                                   : No

Menu
00:00:00.000                             : en:Chapter One
00:15:00.000                             : en:Chapter Two
00:30:00.000                             : en:Chapter Three
00:45:00.000                             : en:Chapter Four
01:00:00.000                             : en:Chapter Five
01:15:00.000                             : en:Chapter Six
01:30:00.000                             : en:Chapter Seven
01:45:00.000                             : en:Chapter Eight





1 个附件 售价 大小 下载 时间

Christine.2016.1080p.WEB-DL.DD5.1.H264-FGT[btbtt.co].torrent 0 金币 94.01K 2089 次 9月前

#1楼
发帖时间:2017-01-10 13:50:09   |   回复数:3
911degrees
一代宗师
非常感谢,谢谢分享
9月前 #2楼
liyouchai
超凡入圣№
谢谢楼主分享资源
9月前 #3楼
blue23
隐世仙人♂
感谢楼主分享
9月前 #4楼
游客组