aoloffline
版主

[更 早] [欧美] [爱情] [BD-1080P] [BT下载]柔肤/软玉温香 The.Soft.Skin.1964.1080p.BluRay.x264-FAPCAVE 6.56GB

-->

◎译  名 柔肤/软玉温香

◎片  名 La peau douce

◎年  代 1964

◎国  家 法国/葡萄牙

◎类  别 剧情/爱情

◎语  言 法语/葡萄牙语/英语

◎上映日期 1964-04-20

◎IMDb评分  7.6/10 from 5,013 users

◎IMDb链接  http://www.imdb.com/title/tt0058458/

◎豆瓣评分 7.6/10 from 1,020 users

◎豆瓣链接 https://movie.douban.com/subject/1297046/

◎BT之家整理 http://www.btbtt.co  

◎片  长 113 分钟/France: 119 分钟(director's cut)/Portugal: 110 分钟(cut version)

◎导  演 弗朗索瓦·特吕弗 François Truffaut

◎主  演 让·德赛利 Jean Desailly

      Nelly Benedetti

      弗朗索瓦·朵列 Françoise Dorléac

      Daniel Ceccaldi


◎简  介


  Pierre Lachenay(让·德赛利 Jean Desailly 饰)是一个已婚的作家和杂志主编,在一次出差时,他被美丽的空姐 Nicole(弗朗索瓦·朵列 Françoise Dorléac 饰)所吸引。碰巧的是,两人竟在同一间酒店见面了。Pierre邀请Ni cole出去喝东西,两人聊了一夜,不久,两人便爱得无法自拔。Pierre要回巴黎了,Nicole在他的本子上留了电话号码。回到家的Pierre瞒着妻子Franca (Nelly Benedetti 饰)偷偷和Nicole联系。他更主动申请出差去Reims,只为了能带上Nicole,暂时远离他的妻子和女儿。在Reims,Pierre为了讲座忙得不可开交,和Nicole闹了矛盾,两人提前离开了Reims。碰巧Pierre的妻子打电话到Reims,发现Pierre已经离开,开始怀疑Pierre。后来,Nicole厌倦了这段关系,离开了Pierre。而另一边,Franca则准备和Pierre离婚。直到Franca发现了Pierre和Nicole的亲密合照,愤怒和嫉妒促使她拿出猎枪,走到街上去寻找Pierre,以了结这一切......


◎获奖情况


  第17届戛纳电影节  (1964)

  主竞赛单元 金棕榈奖(提名) 弗朗索瓦·特吕弗


Video
ID                                       : 1
Format                                   : AVC
Format/Info                              : Advanced Video Codec
Format profile                           : High@L4.1
Format settings, CABAC                   : Yes
Format settings, ReFrames                : 4 frames
Codec ID                                 : V_MPEG4/ISO/AVC
Duration                                 : 1h 31mn
Bit rate                                 : 9 453 Kbps
Width                                    : 1 808 pixels
Height                                   : 1 080 pixels
Display aspect ratio                     : 5:3
Frame rate mode                          : Constant
Frame rate                               : 24.000 fps
Color space                              : YUV
Chroma subsampling                       : 4:2:0
Bit depth                                : 8 bits
Scan type                                : Progressive
Bits/(Pixel*Frame)                       : 0.202
Stream size                              : 6.03 GiB (92%)
Writing library                          : x264 core 142 r2453 ea0ca51
Encoding settings                        : cabac=1 / ref=4 / deblock=1:0:0 / analyse=0x3:0x133 / me=umh / subme=8 / psy=1 / psy_rd=1.00:0.00 / mixed_ref=1 / me_range=16 / chroma_me=1 / trellis=1 / 8x8dct=1 / cqm=0 / deadzone=21,11 / fast_pskip=0 / chroma_qp_offset=-2 / threads=12 / lookahead_threads=2 / sliced_threads=0 / nr=0 / decimate=1 / interlaced=0 / bluray_compat=0 / constrained_intra=0 / bframes=3 / b_pyramid=2 / b_adapt=2 / b_bias=0 / direct=3 / weightb=1 / open_gop=0 / weightp=2 / keyint=250 / keyint_min=24 / scenecut=40 / intra_refresh=0 / rc_lookahead=50 / rc=2pass / mbtree=1 / bitrate=9453 / ratetol=1.0 / qcomp=0.60 / qpmin=0 / qpmax=69 / qpstep=4 / cplxblur=20.0 / qblur=0.5 / ip_ratio=1.40 / aq=1:1.00
Language                                 : English
Default                                  : Yes
Forced                                   : No

Audio
ID                                       : 2
Format                                   : AC-3
Format/Info                              : Audio Coding 3
Mode extension                           : CM (complete main)
Format settings, Endianness              : Big
Codec ID                                 : A_AC3
Duration                                 : 1h 57mn
Bit rate mode                            : Constant
Bit rate                                 : 640 Kbps
Channel(s)                               : 2 channels
Channel positions                        : Front: L R
Sampling rate                            : 48.0 KHz
Frame rate                               : 31.250 fps (1536 spf)
Compression mode                         : Lossy
Stream size                              : 539 MiB (8%)
Language                                 : English
Default                                  : Yes
Forced                                   : No

Text
ID                                       : 3
Format                                   : UTF-8
Codec ID                                 : S_TEXT/UTF8
Codec ID/Info                            : UTF-8 Plain Text
Duration                                 : 1h 56mn
Bit rate                                 : 36 bps
Count of elements                        : 1121
Stream size                              : 31.4 KiB (0%)
Language                                 : English
Default                                  : Yes
Forced                                   : No

Menu
00:00:00.000                             : en:00:00:00.000
00:10:17.292                             : en:00:10:17.292
00:19:37.417                             : en:00:19:37.417
00:30:04.292                             : en:00:30:04.292
00:45:05.083                             : en:00:45:05.083
00:53:33.000                             : en:00:53:33.000
01:06:19.458                             : en:01:06:19.458
01:14:56.542                             : en:01:14:56.542
01:22:42.708                             : en:01:22:42.708
01:30:34.208                             : en:01:30:34.208
01:42:51.375                             : en:01:42:51.375
01:48:29.000                             : en:01:48:29.000






1 个附件 售价 大小 下载 时间

The.Soft.Skin.1964.1080p.BluRay.x264-FAPCAVE[btbtt.co].torrent 0 金币 66.15K 1457 次 4月前

#1楼
发帖时间:2017-01-10 10:40:58   |   回复数:3
blue23
超凡入圣№
感谢楼主分享
4月前 #2楼
911degrees
一代宗师
非常感谢,谢谢分享
4月前 #3楼
liyouchai
超凡入圣№
谢谢楼主分享资源
4月前 #4楼
游客组