aoloffline
版主

[更 早] [欧美] [恐怖] [BD-1080P] [BT下载]终极恐惧 The.Final.Terror.1983.1080p.BluRay.x264-TARS 6.56GB

-->

◎译  名 终极恐惧

◎片  名 The Final Terror

◎年  代 1983

◎国  家 美国

◎类  别 恐怖

◎语  言 英语

◎上映日期 1985-06-06

◎IMDb评分  5.0/10 from 1,515 users

◎IMDb链接  http://www.imdb.com/title/tt0082379/

◎豆瓣评分 5.2/10 from 11 users

◎豆瓣链接 https://movie.douban.com/subject/1947306/

◎BT之家整理 http://www.btbtt.co  

◎片  长 82 分钟

◎导  演 Andrew Davis


◎简  介


  一批年轻的护林员去森林中露营,没想到进入了一个喜欢血腥杀戮的丛林怪人的地盘中,丛林怪人利用他在森林中埋设的陷阱将这群年轻人逼入险境。



Video
ID                                       : 1
Format                                   : AVC
Format/Info                              : Advanced Video Codec
Format profile                           : High@L4.1
Format settings, CABAC                   : Yes
Format settings, ReFrames                : 4 frames
Codec ID                                 : V_MPEG4/ISO/AVC
Duration                                 : 1h 23mn
Bit rate                                 : 9 670 Kbps
Width                                    : 1 920 pixels
Height                                   : 1 080 pixels
Display aspect ratio                     : 16:9
Frame rate mode                          : Constant
Frame rate                               : 23.976 (24000/1001) fps
Color space                              : YUV
Chroma subsampling                       : 4:2:0
Bit depth                                : 8 bits
Scan type                                : Progressive
Bits/(Pixel*Frame)                       : 0.195
Stream size                              : 5.67 GiB (86%)
Writing library                          : x264 core 142 r2491kMod 24e4fed
Encoding settings                        : cabac=1 / ref=4 / deblock=1:-3:-3 / analyse=0x3:0x113 / me=umh / subme=8 / psy=1 / fade_compensate=0.00 / psy_rd=1.10:0.00 / mixed_ref=1 / me_range=16 / chroma_me=1 / trellis=1 / 8x8dct=1 / cqm=0 / deadzone=21,11 / fast_pskip=1 / chroma_qp_offset=-2 / threads=6 / lookahead_threads=1 / sliced_threads=0 / nr=0 / decimate=1 / interlaced=0 / bluray_compat=0 / constrained_intra=0 / fgo=0 / bframes=3 / b_pyramid=2 / b_adapt=2 / b_bias=0 / direct=3 / weightb=1 / open_gop=0 / weightp=2 / keyint=240 / keyint_min=24 / scenecut=40 / intra_refresh=0 / rc_lookahead=50 / rc=2pass / mbtree=1 / bitrate=9670 / ratetol=1.0 / qcomp=0.60 / qpmin=0 / qpmax=69 / qpstep=4 / cplxblur=20.0 / qblur=0.5 / ip_ratio=1.40 / aq=1:0.75
Language                                 : English
Default                                  : Yes
Forced                                   : No

Audio
ID                                       : 2
Format                                   : DTS
Format/Info                              : Digital Theater Systems
Mode                                     : 16
Format settings, Endianness              : Big
Codec ID                                 : A_DTS
Duration                                 : 1h 23mn
Bit rate mode                            : Constant
Bit rate                                 : 1 509 Kbps
Channel(s)                               : 2 channels
Channel positions                        : Front: L R
Sampling rate                            : 48.0 KHz
Frame rate                               : 93.750 fps (512 spf)
Bit depth                                : 24 bits
Compression mode                         : Lossy
Stream size                              : 906 MiB (13%)
Language                                 : English
Default                                  : Yes
Forced                                   : No

Text #1
ID                                       : 3
Format                                   : UTF-8
Codec ID                                 : S_TEXT/UTF8
Codec ID/Info                            : UTF-8 Plain Text
Duration                                 : 1h 18mn
Bit rate                                 : 42 bps
Count of elements                        : 904
Stream size                              : 24.4 KiB (0%)
Language                                 : English
Default                                  : No
Forced                                   : No

Text #2
ID                                       : 4
Format                                   : UTF-8
Codec ID                                 : S_TEXT/UTF8
Codec ID/Info                            : UTF-8 Plain Text
Duration                                 : 1h 19mn
Bit rate                                 : 44 bps
Count of elements                        : 1027
Stream size                              : 25.8 KiB (0%)
Title                                    : SDH
Language                                 : English
Default                                  : No
Forced                                   : No

Menu
00:00:00.000                             : en:00:00:00.000
00:09:57.347                             : en:00:09:57.347
00:17:44.563                             : en:00:17:44.563
00:21:40.299                             : en:00:21:40.299
00:29:47.119                             : en:00:29:47.119
00:35:15.113                             : en:00:35:15.113
00:40:24.172                             : en:00:40:24.172
00:48:15.392                             : en:00:48:15.392
00:57:47.506                             : en:00:57:47.506
01:02:36.670                             : en:01:02:36.670
01:09:32.001                             : en:01:09:32.001
01:15:19.056                             : en:01:15:19.056






1 个附件 售价 大小 下载 时间

The.Final.Terror.1983.1080p.BluRay.x264-TARS[btbtt.co].torrent 0 金币 66.15K 620 次 4月前

#1楼
发帖时间:2017-01-10 10:36:27   |   回复数:3
blue23
超凡入圣№
感谢楼主分享
4月前 #2楼
911degrees
一代宗师
非常感谢,谢谢分享
4月前 #3楼
liyouchai
超凡入圣№
谢谢楼主分享资源
4月前 #4楼
游客组