aoloffline
版主

[2007] [欧美] [喜剧] [BD-1080P] [BT下载]女孩的姓/猪样人生 Pigs.2007.1080p.BluRay.x264-AMIRITE 5.47GB

-->

◎译  名 女孩的姓/猪样人生

◎片  名 Pigs

◎年  代 2007

◎国  家 加拿大

◎类  别 喜剧

◎语  言 英语

◎上映日期 2007-11-05(美国)

◎IMDb评分  4.7/10 from 3,214 users

◎IMDb链接  http://www.imdb.com/title/tt1065106/

◎豆瓣评分 5.6/10 from 380 users

◎豆瓣链接 https://movie.douban.com/subject/2324987/

◎BT之家整理 http://www.btbtt.co  

◎片  长 85分钟

◎导  演 Karl DiPelino

◎主  演 Jefferson Brown

      Darryn Lucio

      Melanie Marden

      Christopher Elliott

      Kelly Cunningham

      Katharine Jane Reid

      Tyrone Greenidge

      Derek Cvitkovic


◎简  介


  Miles是一个圆滑,聪明而且富有吸引力的猛男.当Miles向他的好朋友Cleaver回报又一次征服一个女人时,Cleaver给Miles想到一个主意就是在毕业之前完成整个字母表.经过室友的煽动,Miles最终接受这场竞赛.规则很简单:以女孩的姓的第一个字母罕见程度为胜败标准.赌注就是钱和尊严.一切都按照计划进行的时候,Miles遇到了迷人的Gabrielle Xeropolos,按照规则:X姓女孩是男人的极品.Miles越来越困惑,因为他对Gabrielle渐渐的有了感觉,而他又必须不顾他的那些室友. 最终得出结论,男人都是贪婪的.


Video
ID                                       : 1
Format                                   : AVC
Format/Info                              : Advanced Video Codec
Format profile                           : High@L4.1
Format settings, CABAC                   : Yes
Format settings, ReFrames                : 5 frames
Codec ID                                 : V_MPEG4/ISO/AVC
Duration                                 : 1h 24mn
Bit rate                                 : 8 482 Kbps
Width                                    : 1 920 pixels
Height                                   : 800 pixels
Display aspect ratio                     : 2.40:1
Frame rate mode                          : Constant
Frame rate                               : 24.000 fps
Color space                              : YUV
Chroma subsampling                       : 4:2:0
Bit depth                                : 8 bits
Scan type                                : Progressive
Bits/(Pixel*Frame)                       : 0.230
Stream size                              : 5.01 GiB (92%)
Writing library                          : x264 core 142 r2431 ac76440
Encoding settings                        : cabac=1 / ref=5 / deblock=1:0:0 / analyse=0x3:0x133 / me=umh / subme=7 / psy=1 / psy_rd=1.00:0.00 / mixed_ref=1 / me_range=16 / chroma_me=1 / trellis=1 / 8x8dct=1 / cqm=0 / deadzone=21,11 / fast_pskip=0 / chroma_qp_offset=-2 / threads=12 / lookahead_threads=2 / sliced_threads=0 / nr=0 / decimate=1 / interlaced=0 / bluray_compat=0 / constrained_intra=0 / bframes=3 / b_pyramid=2 / b_adapt=1 / b_bias=0 / direct=1 / weightb=1 / open_gop=0 / weightp=2 / keyint=250 / keyint_min=24 / scenecut=40 / intra_refresh=0 / rc_lookahead=40 / rc=2pass / mbtree=1 / bitrate=8482 / ratetol=1.0 / qcomp=0.60 / qpmin=0 / qpmax=69 / qpstep=4 / cplxblur=20.0 / qblur=0.5 / ip_ratio=1.40 / aq=1:1.00
Language                                 : English
Default                                  : Yes
Forced                                   : No

Audio
ID                                       : 2
Format                                   : DTS
Format/Info                              : Digital Theater Systems
Mode                                     : 16
Format settings, Endianness              : Big
Codec ID                                 : A_DTS
Duration                                 : 1h 24mn
Bit rate mode                            : Constant
Bit rate                                 : 768 Kbps
Channel(s)                               : 6 channels
Channel positions                        : Front: L C R, Side: L R, LFE
Sampling rate                            : 48.0 KHz
Frame rate                               : 93.750 fps (512 spf)
Bit depth                                : 24 bits
Compression mode                         : Lossy
Stream size                              : 465 MiB (8%)
Title                                    : English
Language                                 : English
Default                                  : Yes
Forced                                   : No

Menu
00:00:00.000                             : en:00:00:00.000
00:03:21.667                             : en:00:03:21.667
00:10:37.958                             : en:00:10:37.958
00:18:38.875                             : en:00:18:38.875
00:25:21.583                             : en:00:25:21.583
00:29:45.875                             : en:00:29:45.875
00:33:20.708                             : en:00:33:20.708
00:38:37.000                             : en:00:38:37.000
00:45:50.708                             : en:00:45:50.708
00:54:15.458                             : en:00:54:15.458
01:04:47.208                             : en:01:04:47.208
01:16:46.625                             : en:01:16:46.625





1 个附件 售价 大小 下载 时间

Pigs.2007.1080p.BluRay.x264-AMIRITE[btbtt.co].torrent 0 金币 55.22K 914 次 7月前

#1楼
发帖时间:2017-01-10 10:33:58   |   回复数:3
blue23
超凡入圣№
感谢楼主分享
7月前 #2楼
911degrees
一代宗师
非常感谢,谢谢分享
7月前 #3楼
liyouchai
超凡入圣№
谢谢楼主分享资源
7月前 #4楼
游客组