aoloffline
版主

[2016] [欧美] [爱情] [Remux] [BT下载]大洋之间的灯光 2016.1080p.BluRay.REMUX.AVC.DTS-HD.MA.7.1-FGT 37.9GB

-->

◎译  名 但丁密码/地狱(台)/地狱解码(港)

◎片  名 Inferno

◎年  代 2016

◎国  家 美国/匈牙利

◎类  别 悬疑/惊悚

◎语  言 英语/法语/意大利语/土耳其语

◎上映日期 2016-10-28(中国大陆/美国)

◎IMDb评分  6.3/10 from 44,006 users

◎IMDb链接  http://www.imdb.com/title/tt3062096/

◎豆瓣评分 6.3/10 from 31,570 users

◎豆瓣链接 https://movie.douban.com/subject/24860318/

◎BT之家整理 http://www.btbtt.co

◎片  长 122分钟

◎导  演 朗·霍华德 Ron Howard

◎主  演 汤姆·汉克斯 Tom Hanks

      费莉西蒂·琼斯 Felicity Jones

      本·福斯特 Ben Foster

      奥玛·赛 Omar Sy

      伊尔凡·可汗 Irrfan Khan

      西德斯·巴比特·科努德森 Sidse Babett Knudsen

      安娜·乌拉鲁 Ana Ularu

      沃尔夫冈·施特格曼 Wolfgang Stegemann

      阿提拉·阿帕 Attila Árpa

      乔恩·多纳休 Jon Donahue


◎简  介


  《但丁密码》改编自丹·布朗2013年的小说《地狱》,讲述了符号学教授罗伯特·兰登(汤姆·汉克斯 Tom Hanks 饰)在意大利一所医院中醒来,发觉自己头部受到重创且失忆,同时还受到多组人马追杀,女医生西恩娜·布鲁克斯(费莉西蒂·琼斯 Felicity Jones 饰)帮助他逃出医院,寻回记忆,在这一过程中发现隐藏在但丁、米开朗琪罗等大师作品里的一个惊天阴谋,有极端邪恶的科学家妄图利用病毒把地球变成但丁《神曲》中描绘的地狱。


Video
ID                                       : 1
Format                                   : AVC
Format/Info                              : Advanced Video Codec
Format profile                           : High@L4.1
Format settings, CABAC                   : Yes
Format settings, ReFrames                : 4 frames
Codec ID                                 : V_MPEG4/ISO/AVC
Duration                                 : 2h 12mn
Bit rate mode                            : Variable
Maximum bit rate                         : 36.5 Mbps
Width                                    : 1 920 pixels
Height                                   : 1 080 pixels
Display aspect ratio                     : 16:9
Frame rate mode                          : Constant
Frame rate                               : 23.976 (24000/1001) fps
Color space                              : YUV
Chroma subsampling                       : 4:2:0
Bit depth                                : 8 bits
Scan type                                : Progressive
Title                                    : The.Light.Between.Oceans.2016.1080p.BluRay.REMUX.AVC.DTS-HD.MA.7.1-FGT
Language                                 : English
Default                                  : No
Forced                                   : No

Audio #1
ID                                       : 2
Format                                   : DTS
Format/Info                              : Digital Theater Systems
Format profile                           : MA / Core
Mode                                     : 16
Format settings, Endianness              : Big
Codec ID                                 : A_DTS
Duration                                 : 2h 12mn
Bit rate mode                            : Variable / Constant
Bit rate                                 : Unknown / 1 509 Kbps
Channel(s)                               : 8 channels / 6 channels
Channel positions                        : Front: L C R, Side: L R, Back: L R, LFE / Front: L C R, Side: L R, LFE
Sampling rate                            : 48.0 KHz
Frame rate                               : 93.750 fps (512 spf)
Bit depth                                : 24 bits
Compression mode                         : Lossless / Lossy
Title                                    : The.Light.Between.Oceans.2016.1080p.BluRay.REMUX.AVC.DTS-HD.MA.7.1-FGT
Language                                 : English
Default                                  : Yes
Forced                                   : No

Audio #2
ID                                       : 3
Format                                   : DTS
Format/Info                              : Digital Theater Systems
Mode                                     : 16
Format settings, Endianness              : Big
Codec ID                                 : A_DTS
Duration                                 : 2h 12mn
Bit rate mode                            : Constant
Bit rate                                 : 1 509 Kbps
Channel(s)                               : 6 channels
Channel positions                        : Front: L C R, Side: L R, LFE
Sampling rate                            : 48.0 KHz
Frame rate                               : 93.750 fps (512 spf)
Bit depth                                : 24 bits
Compression mode                         : Lossy
Stream size                              : 1.40 GiB (4%)
Title                                    : The.Light.Between.Oceans.2016.1080p.BluRay.REMUX.AVC.DTS-HD.MA.7.1-FGT
Language                                 : English
Default                                  : No
Forced                                   : No

Audio #3
ID                                       : 4
Format                                   : AC-3
Format/Info                              : Audio Coding 3
Format profile                           : Dolby Digital
Mode extension                           : CM (complete main)
Format settings, Endianness              : Big
Codec ID                                 : A_AC3
Duration                                 : 2h 12mn
Bit rate mode                            : Constant
Bit rate                                 : 320 Kbps
Channel(s)                               : 2 channels
Channel positions                        : Front: L R
Sampling rate                            : 48.0 KHz
Frame rate                               : 31.250 fps (1536 spf)
Compression mode                         : Lossy
Stream size                              : 304 MiB (1%)
Title                                    : The.Light.Between.Oceans.2016.1080p.BluRay.REMUX.AVC.DTS-HD.MA.7.1-FGT
Language                                 : English
Default                                  : No
Forced                                   : No

Audio #4
ID                                       : 5
Format                                   : AC-3
Format/Info                              : Audio Coding 3
Mode extension                           : CM (complete main)
Format settings, Endianness              : Big
Codec ID                                 : A_AC3
Duration                                 : 2h 12mn
Bit rate mode                            : Constant
Bit rate                                 : 640 Kbps
Channel(s)                               : 6 channels
Channel positions                        : Front: L C R, Side: L R, LFE
Sampling rate                            : 48.0 KHz
Frame rate                               : 31.250 fps (1536 spf)
Compression mode                         : Lossy
Stream size                              : 608 MiB (2%)
Title                                    : The.Light.Between.Oceans.2016.1080p.BluRay.REMUX.AVC.DTS-HD.MA.7.1-FGT
Language                                 : French
Default                                  : No
Forced                                   : No

Audio #5
ID                                       : 6
Format                                   : AC-3
Format/Info                              : Audio Coding 3
Mode extension                           : CM (complete main)
Format settings, Endianness              : Big
Codec ID                                 : A_AC3
Duration                                 : 2h 12mn
Bit rate mode                            : Constant
Bit rate                                 : 640 Kbps
Channel(s)                               : 6 channels
Channel positions                        : Front: L C R, Side: L R, LFE
Sampling rate                            : 48.0 KHz
Frame rate                               : 31.250 fps (1536 spf)
Compression mode                         : Lossy
Stream size                              : 608 MiB (2%)
Title                                    : The.Light.Between.Oceans.2016.1080p.BluRay.REMUX.AVC.DTS-HD.MA.7.1-FGT
Language                                 : Spanish
Default                                  : No
Forced                                   : No

Audio #6
ID                                       : 7
Format                                   : AC-3
Format/Info                              : Audio Coding 3
Mode extension                           : CM (complete main)
Format settings, Endianness              : Big
Codec ID                                 : A_AC3
Duration                                 : 2h 12mn
Bit rate mode                            : Constant
Bit rate                                 : 192 Kbps
Channel(s)                               : 2 channels
Channel positions                        : Front: L R
Sampling rate                            : 48.0 KHz
Frame rate                               : 31.250 fps (1536 spf)
Compression mode                         : Lossy
Stream size                              : 182 MiB (0%)
Title                                    : The.Light.Between.Oceans.2016.1080p.BluRay.REMUX.AVC.DTS-HD.MA.7.1-FGT
Language                                 : English
Default                                  : No
Forced                                   : No

Text #1
ID                                       : 8
Format                                   : PGS
Muxing mode                              : zlib
Codec ID                                 : S_HDMV/PGS
Codec ID/Info                            : Picture based subtitle format used on BDs/HD-DVDs
Title                                    : English-PGS
Language                                 : English
Default                                  : No
Forced                                   : No

Text #2
ID                                       : 9
Format                                   : PGS
Muxing mode                              : zlib
Codec ID                                 : S_HDMV/PGS
Codec ID/Info                            : Picture based subtitle format used on BDs/HD-DVDs
Title                                    : French-PGS
Language                                 : French
Default                                  : No
Forced                                   : No

Text #3
ID                                       : 10
Format                                   : PGS
Muxing mode                              : zlib
Codec ID                                 : S_HDMV/PGS
Codec ID/Info                            : Picture based subtitle format used on BDs/HD-DVDs
Title                                    : Spanish-PGS
Language                                 : Spanish
Default                                  : No
Forced                                   : No

Text #4
ID                                       : 11
Format                                   : PGS
Muxing mode                              : zlib
Codec ID                                 : S_HDMV/PGS
Codec ID/Info                            : Picture based subtitle format used on BDs/HD-DVDs
Title                                    : English-COMMENTARY-PGS
Language                                 : English
Default                                  : No
Forced                                   : No

Text #5
ID                                       : 12
Format                                   : PGS
Muxing mode                              : zlib
Codec ID                                 : S_HDMV/PGS
Codec ID/Info                            : Picture based subtitle format used on BDs/HD-DVDs
Title                                    : French-COMMENTARY-PGS
Language                                 : French
Default                                  : No
Forced                                   : No

Text #6
ID                                       : 13
Format                                   : PGS
Muxing mode                              : zlib
Codec ID                                 : S_HDMV/PGS
Codec ID/Info                            : Picture based subtitle format used on BDs/HD-DVDs
Title                                    : Spanish-COMMENTARY-PGS
Language                                 : Spanish
Default                                  : No
Forced                                   : No

Text #7
ID                                       : 14
Format                                   : PGS
Muxing mode                              : zlib
Codec ID                                 : S_HDMV/PGS
Codec ID/Info                            : Picture based subtitle format used on BDs/HD-DVDs
Title                                    : French-FORCED-PGS
Language                                 : French
Default                                  : No
Forced                                   : No

Text #8
ID                                       : 15
Format                                   : PGS
Muxing mode                              : zlib
Codec ID                                 : S_HDMV/PGS
Codec ID/Info                            : Picture based subtitle format used on BDs/HD-DVDs
Title                                    : Spanish-FORCED-PGS
Language                                 : Spanish
Default                                  : No
Forced                                   : No

Menu
00:00:00.000                             : en:Chapter 01
00:04:55.128                             : en:Chapter 02
00:11:38.531                             : en:Chapter 03
00:17:30.007                             : en:Chapter 04
00:23:07.469                             : en:Chapter 05
00:29:35.815                             : en:Chapter 06
00:35:21.953                             : en:Chapter 07
00:42:35.678                             : en:Chapter 08
00:49:51.822                             : en:Chapter 09
00:55:14.185                             : en:Chapter 10
00:59:26.062                             : en:Chapter 11
01:05:48.027                             : en:Chapter 12
01:10:52.957                             : en:Chapter 13
01:13:14.723                             : en:Chapter 14
01:22:34.032                             : en:Chapter 15
01:31:42.955                             : en:Chapter 16
01:42:29.101                             : en:Chapter 17
01:51:31.017                             : en:Chapter 18
02:01:29.323                             : en:Chapter 19
02:07:08.621                             : en:Chapter 20





1 个附件 售价 大小 下载 时间

The.Light.Between.Oceans.2016.1080p.BluRay.REMUX.AVC.DTS-HD.MA.7.1-FGT[btbtt.co].torrent 0 金币 95.50K 1390 次 8月前

#1楼
发帖时间:2017-01-09 18:57:07   |   回复数:3
liyouchai
超凡入圣№
谢谢楼主分享资源
8月前 #2楼
blue23
超凡入圣№
感谢楼主分享
8月前 #3楼
jasonchueh
武林高手
樓主發文搞錯影片資訊
8月前 #4楼
游客组