aoloffline
版主

[2016] [欧美] [恐怖] [Remux] [BT下载]死亡占卜2:恶灵始源 2016.1080p.BluRay.REMUX.AVC.DTS-HD.MA.5.1-FGT 26.7GB

-->

◎译  名 死亡占卜2:恶灵始源/碟仙:恶灵始源(台)/死亡占卜2

◎片  名 Ouija: Origin of Evil

◎年  代 2016

◎国  家 美国

◎类  别 恐怖

◎语  言 英语

◎上映日期 2016-10-21(英国)

◎IMDb评分  6.2/10 from 14,983 users

◎IMDb链接  http://www.imdb.com/title/tt4361050/

◎豆瓣评分 6.0/10 from 1,333 users

◎豆瓣链接 https://movie.douban.com/subject/26602794/

◎BT之家整理 http://www.btbtt.co 

◎片  长 99分钟

◎导  演 迈克·弗拉纳根 Mike Flanagan

◎主  演 安娜丽丝·巴索 Annalise Basso

      伊莉莎白·里瑟 Elizabeth Reaser

      露露·威尔逊 Lulu Wilson

      亨利·托马斯 Henry Thomas

      帕克·马克 Parker Mack

      道格·琼斯 Doug Jones

      切斯拉·冈萨雷兹 Chelsea Gonzalez

      林肯·梅尔彻 Lincoln Melcher

      尼可拉斯·肯南 Nicholas Keenan

      迈克尔·韦弗 Michael Weaver

      艾利·凯特斯 Ele Keats

      伊芙·戈登 Eve Gordon

      查德·赫弗芬格 Chad Heffelfinger

      妮娜·曼斯克 Nina Mansker

      约翰·普洛斯凯 John Prosky


◎简  介


  为了要将召唤来的恶灵送回阴间,这一家人必须去面对他们内心最恐惧的事物,古老的碟仙板将再次召唤出恶灵。


Video
ID                                       : 1
Format                                   : AVC
Format/Info                              : Advanced Video Codec
Format profile                           : High@L4.1
Format settings, CABAC                   : Yes
Format settings, ReFrames                : 4 frames
Codec ID                                 : V_MPEG4/ISO/AVC
Duration                                 : 1h 38mn
Bit rate mode                            : Variable
Maximum bit rate                         : 35.0 Mbps
Width                                    : 1 920 pixels
Height                                   : 1 080 pixels
Display aspect ratio                     : 16:9
Frame rate mode                          : Constant
Frame rate                               : 23.976 (24000/1001) fps
Color space                              : YUV
Chroma subsampling                       : 4:2:0
Bit depth                                : 8 bits
Scan type                                : Progressive
Title                                    : Ouija.Origin.of.Evil.2016.1080p.BluRay.REMUX.AVC.DTS-HD.MA.5.1-FGT
Language                                 : English
Default                                  : No
Forced                                   : No

Audio #1
ID                                       : 2
Format                                   : DTS
Format/Info                              : Digital Theater Systems
Format profile                           : MA / Core
Mode                                     : 16
Format settings, Endianness              : Big
Codec ID                                 : A_DTS
Duration                                 : 1h 38mn
Bit rate mode                            : Variable / Constant
Bit rate                                 : Unknown / 1 509 Kbps
Channel(s)                               : 6 channels
Channel positions                        : Front: L C R, Side: L R, LFE
Sampling rate                            : 48.0 KHz
Frame rate                               : 93.750 fps (512 spf)
Bit depth                                : 24 bits
Compression mode                         : Lossless / Lossy
Title                                    : Ouija.Origin.of.Evil.2016.1080p.BluRay.REMUX.AVC.DTS-HD.MA.5.1-FGT
Language                                 : English
Default                                  : Yes
Forced                                   : No

Audio #2
ID                                       : 3
Format                                   : DTS
Format/Info                              : Digital Theater Systems
Mode                                     : 16
Format settings, Endianness              : Big
Codec ID                                 : A_DTS
Duration                                 : 1h 38mn
Bit rate mode                            : Constant
Bit rate                                 : 1 509 Kbps
Channel(s)                               : 6 channels
Channel positions                        : Front: L C R, Side: L R, LFE
Sampling rate                            : 48.0 KHz
Frame rate                               : 93.750 fps (512 spf)
Bit depth                                : 24 bits
Compression mode                         : Lossy
Stream size                              : 1.04 GiB (4%)
Title                                    : Ouija.Origin.of.Evil.2016.1080p.BluRay.REMUX.AVC.DTS-HD.MA.5.1-FGT
Language                                 : English
Default                                  : No
Forced                                   : No

Audio #3
ID                                       : 4
Format                                   : DTS
Format/Info                              : Digital Theater Systems
Mode                                     : 16
Format settings, Endianness              : Big
Codec ID                                 : A_DTS
Duration                                 : 1h 38mn
Bit rate mode                            : Constant
Bit rate                                 : 768 Kbps
Channel(s)                               : 6 channels
Channel positions                        : Front: L C R, Side: L R, LFE
Sampling rate                            : 48.0 KHz
Frame rate                               : 93.750 fps (512 spf)
Bit depth                                : 24 bits
Compression mode                         : Lossy
Stream size                              : 543 MiB (2%)
Title                                    : Ouija.Origin.of.Evil.2016.1080p.BluRay.REMUX.AVC.DTS-HD.MA.5.1-FGT
Language                                 : Spanish
Default                                  : No
Forced                                   : No

Audio #4
ID                                       : 5
Format                                   : DTS
Format/Info                              : Digital Theater Systems
Mode                                     : 16
Format settings, Endianness              : Big
Codec ID                                 : A_DTS
Duration                                 : 1h 38mn
Bit rate mode                            : Constant
Bit rate                                 : 768 Kbps
Channel(s)                               : 6 channels
Channel positions                        : Front: L C R, Side: L R, LFE
Sampling rate                            : 48.0 KHz
Frame rate                               : 93.750 fps (512 spf)
Bit depth                                : 24 bits
Compression mode                         : Lossy
Stream size                              : 543 MiB (2%)
Title                                    : Ouija.Origin.of.Evil.2016.1080p.BluRay.REMUX.AVC.DTS-HD.MA.5.1-FGT
Language                                 : French
Default                                  : No
Forced                                   : No

Audio #5
ID                                       : 6
Format                                   : AC-3
Format/Info                              : Audio Coding 3
Format profile                           : Dolby Digital
Mode extension                           : CM (complete main)
Format settings, Endianness              : Big
Codec ID                                 : A_AC3
Duration                                 : 1h 38mn
Bit rate mode                            : Constant
Bit rate                                 : 192 Kbps
Channel(s)                               : 2 channels
Channel positions                        : Front: L R
Sampling rate                            : 48.0 KHz
Frame rate                               : 31.250 fps (1536 spf)
Compression mode                         : Lossy
Stream size                              : 136 MiB (0%)
Title                                    : Ouija.Origin.of.Evil.2016.1080p.BluRay.REMUX.AVC.DTS-HD.MA.5.1-FGT
Language                                 : English
Default                                  : No
Forced                                   : No

Audio #6
ID                                       : 7
Format                                   : AC-3
Format/Info                              : Audio Coding 3
Format profile                           : Dolby Digital
Mode extension                           : CM (complete main)
Format settings, Endianness              : Big
Codec ID                                 : A_AC3
Duration                                 : 1h 38mn
Bit rate mode                            : Constant
Bit rate                                 : 192 Kbps
Channel(s)                               : 2 channels
Channel positions                        : Front: L R
Sampling rate                            : 48.0 KHz
Frame rate                               : 31.250 fps (1536 spf)
Compression mode                         : Lossy
Stream size                              : 136 MiB (0%)
Title                                    : Ouija.Origin.of.Evil.2016.1080p.BluRay.REMUX.AVC.DTS-HD.MA.5.1-FGT
Language                                 : English
Default                                  : No
Forced                                   : No

Text #1
ID                                       : 8
Format                                   : PGS
Muxing mode                              : zlib
Codec ID                                 : S_HDMV/PGS
Codec ID/Info                            : Picture based subtitle format used on BDs/HD-DVDs
Title                                    : English-PGS
Language                                 : English
Default                                  : No
Forced                                   : No

Text #2
ID                                       : 9
Format                                   : PGS
Muxing mode                              : zlib
Codec ID                                 : S_HDMV/PGS
Codec ID/Info                            : Picture based subtitle format used on BDs/HD-DVDs
Title                                    : Spanish-PGS
Language                                 : Spanish
Default                                  : No
Forced                                   : No

Text #3
ID                                       : 10
Format                                   : PGS
Muxing mode                              : zlib
Codec ID                                 : S_HDMV/PGS
Codec ID/Info                            : Picture based subtitle format used on BDs/HD-DVDs
Title                                    : French-PGS
Language                                 : French
Default                                  : No
Forced                                   : No

Text #4
ID                                       : 11
Format                                   : PGS
Muxing mode                              : zlib
Codec ID                                 : S_HDMV/PGS
Codec ID/Info                            : Picture based subtitle format used on BDs/HD-DVDs
Title                                    : Spanish-FORCED-PGS
Language                                 : Spanish
Default                                  : No
Forced                                   : No

Text #5
ID                                       : 12
Format                                   : PGS
Muxing mode                              : zlib
Codec ID                                 : S_HDMV/PGS
Codec ID/Info                            : Picture based subtitle format used on BDs/HD-DVDs
Title                                    : French-FORCED-PGS
Language                                 : French
Default                                  : No
Forced                                   : No

Menu
00:00:00.000                             : en:Chapter 01
00:05:30.747                             : en:Chapter 02
00:09:12.468                             : en:Chapter 03
00:14:19.525                             : en:Chapter 04
00:21:37.879                             : en:Chapter 05
00:25:24.314                             : en:Chapter 06
00:30:09.849                             : en:Chapter 07
00:35:53.317                             : en:Chapter 08
00:39:04.383                             : en:Chapter 09
00:43:53.464                             : en:Chapter 10
00:48:49.676                             : en:Chapter 11
00:55:11.683                             : en:Chapter 12
00:58:47.607                             : en:Chapter 13
01:05:27.715                             : en:Chapter 14
01:10:46.283                             : en:Chapter 15
01:14:26.420                             : en:Chapter 16
01:18:25.075                             : en:Chapter 17
01:21:48.403                             : en:Chapter 18
01:27:42.840                             : en:Chapter 19
01:31:03.291                             : en:Chapter 20





1 个附件 售价 大小 下载 时间

Ouija.Origin.of.Evil.2016.1080p.BluRay.REMUX.AVC.DTS-HD.MA.5.1-FGT[btbtt.co].torrent 0 金币 67.50K 1321 次 2月前

#1楼
发帖时间:2017-01-08 23:45:16   |   回复数:3
blue23
超凡入圣№
感谢楼主分享
2月前 #2楼
liyouchai
超凡入圣№
谢谢楼主分享资源
2月前 #3楼
911degrees
一代宗师
非常感谢,谢谢分享
2月前 #4楼
游客组