果果粒可可
一代宗师

[2016] [欧美] [喜剧] [WEB-720P] [BT下载]你我之间 Between.Us.2016.720p.WEB-DL.x264.AC3-Moita 2.79GB

-->

◎译  名 你我之间

◎片  名 Between Us

◎年  代 2016

◎国  家 美国

◎类  别 剧情/喜剧/爱情

◎语  言 英语

◎IMDb评分  7.3/10 from 51 users

◎IMDb链接  http://www.imdb.com/title/tt3886604/

◎BT之家整理 http://www.btbtt.co

◎导  演 Rafael Palacio Illingworth

◎主  演 安娜丽·提普顿 Analeigh Tipton

      奥莉薇·瑟尔比 Olivia Thirlby

      亚当·戈德堡 Adam Goldberg

      本·费德曼 Ben Feldman

      莱斯莉·安·华伦 Lesley Ann Warren

      约翰·罗斯·鲍伊 John Ross Bowie

      彼得·博格丹诺维奇 Peter Bogdanovich

      谢瑞琳·威尔逊 Cherilyn Wilson

      斯科特·黑兹 Scott Haze


◎简  介


  Thirlby and Feldman play a couple confronted by the fear that settling down and getting married means their carefree days as city-dwelling young adults coming to an abrupt and depressing end. Both are tempted by the allure of another life before ultimately realizing why they fell in love in the first place.


Complete name : Between.Us.2016.720p.WEB-DL.x264.AC3-Moita[PRiME].mkv
Format : Matroska
Format version : Version 2
File size : 2.76 GiB
Duration : 1 h 34 min
Overall bit rate : 4 187 kb/s
Movie name : Between.Us.2016.1080p.WEB-DL.DD5.1.H264-FGT
Encoded date : UTC 2017-01-06T11:48:35Z
Writing application : HandBrake 0.10.5 2016021100
Writing library : Lavf55.12.0 / Lavf55.12.0

Video
ID : 1
Format : AVC
Format/Info : Advanced Video Codec
Format profile : High@L4.1
Format settings, CABAC : Yes
Format settings, ReFrames : 4 frames
Codec ID : V_MPEG4/ISO/AVC
Duration : 1 h 34 min
Bit rate : 3 800 kb/s
Width : 1 280 pixels
Height : 772 pixels
Display aspect ratio : 5:3
Frame rate mode : Constant
Frame rate : 23.976 (24000/1001) FPS
Color space : YUV
Chroma subsampling : 4:2:0
Bit depth : 8 bits
Scan type : Progressive
Bits/(Pixel*Frame) : 0.160
Stream size : 2.45 GiB (89%)
Writing library : x264 core 142 r2479 dd79a61
Encoding settings : cabac=1 / ref=1 / deblock=1:0:0 / analyse=0x3:0x113 / me=hex / subme=2 / psy=1 / psy_rd=1.00:0.00 / mixed_ref=0 / me_range=16 / chroma_me=1 / trellis=0 / 8x8dct=1 / cqm=0 / deadzone=21,11 / fast_pskip=1 / chroma_qp_offset=0 / threads=12 / lookahead_threads=4 / sliced_threads=0 / nr=0 / decimate=1 / interlaced=0 / bluray_compat=0 / constrained_intra=0 / bframes=3 / b_pyramid=2 / b_adapt=1 / b_bias=0 / direct=1 / weightb=1 / open_gop=0 / weightp=1 / keyint=240 / keyint_min=24 / scenecut=40 / intra_refresh=0 / rc_lookahead=10 / rc=2pass / mbtree=1 / bitrate=3800 / ratetol=1.0 / qcomp=0.60 / qpmin=0 / qpmax=69 / qpstep=4 / cplxblur=20.0 / qblur=0.5 / vbv_maxrate=62500 / vbv_bufsize=78125 / nal_hrd=none / filler=0 / ip_ratio=1.40 / aq=1:1.00
Default : Yes
Forced : No
Color range : Limited
Color primaries : BT.709
Transfer characteristics : BT.709
Matrix coefficients : BT.709

Audio
ID : 2
Format : AC-3
Format/Info : Audio Coding 3
Format profile : Dolby Digital
Mode extension : CM (complete main)
Format settings, Endianness : Big
Codec ID : A_AC3
Duration : 1 h 34 min
Bit rate mode : Constant
Bit rate : 384 kb/s
Channel(s) : 2 channels
Channel positions : Front: L R
Sampling rate : 48.0 kHz
Frame rate : 31.250 FPS (1536 spf)
Compression mode : Lossy
Delay relative to video : -5 ms
Stream size : 260 MiB (9%)
Title : Stereo
Language : English
Default : Yes
Forced : No

Menu
00:00:00.000 : :1
00:10:34.133 : :2
00:22:44.112 : 
00:32:58.142 : :4
00:51:01.141 : :5
01:00:42.096 : :6
01:13:04.129 : :7
01:28:29.137 : :8

Screens.png

Click Image To View Full Size

eZ7KY.th.jpg
Click To View Screenshot
Click To View Screenshot
Click To View Screenshot


1 个附件 售价 大小 下载 时间

Between.Us.2016.720p.WEB-DL.x264.AC3-Moita[btbtt.co].torrent 0 金币 4.72K 1657 次 10月前

#1楼
发帖时间:2017-01-08 22:23:03   |   回复数:3
blue23
隐世仙人♂
感谢楼主分享
10月前 #2楼
liyouchai
超凡入圣№
谢谢楼主分享资源
10月前 #3楼
911degrees
一代宗师
非常感谢,谢谢分享
10月前 #4楼
游客组