果果粒可可
一代宗师

[2016] [欧美] [恐怖] [WEB-720P] [BT下载]甘草叉 Pitchfork.2016.720p.WEB-DL.x264.AC3-Moita 2.67GB

-->

◎译  名 甘草叉

◎片  名 Pitchfork

◎年  代 2016

◎国  家 美国

◎类  别 恐怖

◎语  言 英语

◎IMDb评分  7.8/10 from 17 users

◎IMDb链接  http://www.imdb.com/title/tt4985848/

◎BT之家整理 http://www.btbtt.co

◎导  演 Glenn Douglas Packard

◎主  演 Daniel Wilkinson

      Brian Raetz

      Lindsey Nicole

      Ryan Moore

      Celina Beach

      Nicole Dambro

      Keith Webb


◎简  介


  A group of friends return home with a friend to help him share a secret only to learn that sometimes older secrets are even more deadly.


Complete name : Pitchfork.2016.720p.WEB-DL.x264.AC3-Moita.mkv
Format : Matroska
Format version : Version 2
File size : 2.64 GiB
Duration : 1 h 34 min
Overall bit rate : 3 987 kb/s
Movie name : Pitchfork.2016.1080p.WEB-DL.DD5.1.H264-FGT
Encoded date : UTC 2017-01-06T12:27:51Z
Writing application : HandBrake 0.10.5 2016021100
Writing library : Lavf55.12.0 / Lavf55.12.0

Video
ID : 1
Format : AVC
Format/Info : Advanced Video Codec
Format profile : High@L4.1
Format settings, CABAC : Yes
Format settings, ReFrames : 4 frames
Codec ID : V_MPEG4/ISO/AVC
Duration : 1 h 34 min
Bit rate : 3 600 kb/s
Width : 1 280 pixels
Height : 538 pixels
Display aspect ratio : 2.40:1
Frame rate mode : Constant
Frame rate : 23.976 (23976/1000) FPS
Color space : YUV
Chroma subsampling : 4:2:0
Bit depth : 8 bits
Scan type : Progressive
Bits/(Pixel*Frame) : 0.218
Stream size : 2.33 GiB (88%)
Writing library : x264 core 142 r2479 dd79a61
Encoding settings : cabac=1 / ref=1 / deblock=1:0:0 / analyse=0x3:0x113 / me=hex / subme=2 / psy=1 / psy_rd=1.00:0.00 / mixed_ref=0 / me_range=16 / chroma_me=1 / trellis=0 / 8x8dct=1 / cqm=0 / deadzone=21,11 / fast_pskip=1 / chroma_qp_offset=0 / threads=12 / lookahead_threads=4 / sliced_threads=0 / nr=0 / decimate=1 / interlaced=0 / bluray_compat=0 / constrained_intra=0 / bframes=3 / b_pyramid=2 / b_adapt=1 / b_bias=0 / direct=1 / weightb=1 / open_gop=0 / weightp=1 / keyint=240 / keyint_min=24 / scenecut=40 / intra_refresh=0 / rc_lookahead=10 / rc=2pass / mbtree=1 / bitrate=3600 / ratetol=1.0 / qcomp=0.60 / qpmin=0 / qpmax=69 / qpstep=4 / cplxblur=20.0 / qblur=0.5 / vbv_maxrate=62500 / vbv_bufsize=78125 / nal_hrd=none / filler=0 / ip_ratio=1.40 / aq=1:1.00
Default : Yes
Forced : No
Color range : Limited
Color primaries : BT.709
Transfer characteristics : BT.709
Matrix coefficients : BT.709

Audio
ID : 2
Format : AC-3
Format/Info : Audio Coding 3
Format profile : Dolby Digital
Mode extension : CM (complete main)
Format settings, Endianness : Big
Codec ID : A_AC3
Duration : 1 h 34 min
Bit rate mode : Constant
Bit rate : 384 kb/s
Channel(s) : 2 channels
Channel positions : Front: L R
Sampling rate : 48.0 kHz
Frame rate : 31.250 FPS (1536 spf)
Compression mode : Lossy
Delay relative to video : -5 ms
Stream size : 260 MiB (10%)
Title : Stereo
Language : English
Default : Yes
Forced : No

Menu
00:00:00.000 : :1
00:10:30.130 : :2
00:22:15.126 : 
00:32:00.128 : :4
00:41:05.090 : :5
00:51:45.105 : :6
00:59:32.155 : :7
01:10:36.111 : :8
01:17:15.135 : :9
01:31:47.090 : :10

Screens.png

Click Image To View Full Size

eZ9hK.th.jpg
Click To View Screenshot
Click To View Screenshot
Click To View Screenshot


1 个附件 售价 大小 下载 时间

Pitchfork.2016.720p.WEB-DL.x264.AC3-Moita[btbtt.co].torrent 0 金币 4.56K 1536 次 7月前

#1楼
发帖时间:2017-01-08 22:15:16   |   回复数:4
blue23
超凡入圣№
感谢楼主分享
7月前 #2楼
liyouchai
超凡入圣№
谢谢楼主分享资源
7月前 #3楼
albb2188
一派掌门
感谢楼主提供分享影片资源!
7月前 #4楼
911degrees
一代宗师
非常感谢,谢谢分享
7月前 #5楼
游客组