果果粒可可
一代宗师

[2017] [欧美] [动作] [WEB-720P] [BT下载]军火厂 Arsenal.2017.720p.WEB-DL.x264.AC3-Moita 2.73GB

-->

◎译  名 军火厂

◎片  名 Arsenal

◎年  代 2017

◎国  家 美国

◎类  别 惊悚

◎语  言 英语

◎上映日期 2017-01-06(美国)

◎IMDb评分  N/A

◎IMDb链接  http://imdb.com/title/tt5580536/

◎BT之家整理 http://www.btbtt.co

◎导  演 史蒂芬·C·米勒 Steven C. Miller

◎主  演 尼古拉斯·凯奇 Nicolas Cage

      约翰·库萨克 John Cusack

      艾德里安·格尼尔 Adrian Grenier

      乔纳森·斯卡奇 Johnathon Schaech

      丽迪雅·赫尔 Lydia Hull

      克里斯托弗·科波拉 Christopher Coppola

      Heather Johansen

      Tyler Jon Olson

      Jared Bankens

      William Mark McCullough

      Abbie Gayle

      Christopher Rob Bowen

      Catherine Ashton

      Hans Marrero

      Carrie Jo Hubrich


◎简  介


  动作惊悚片《南方之怒》讲述了一对林德尔姓兄弟的复杂往事。麦基(乔纳森·斯卡奇 饰)和JP(阿德里安·格尼尔 饰)从小相依为命,一起长大。成年后,JP成为了一家建筑公司的老板,而麦基加入了黑帮,生活中充满了犯罪。麦基因欠债而被心狠手辣的大佬艾迪·金(尼古拉斯·凯奇 饰)绑架。为了搭救麦基,JP找到了麦基昔日的伙伴,如今的便衣警察萨尔(约翰·库萨克 饰)寻求帮助。JP必须冒着生命危险搭救麦基,并向艾迪和他的手下帮派展开复仇。



Complete name : Arsenal.2017.720p.WEB-DL.x264.AC3-Moita[PRiME].mkv
Format : Matroska
Format version : Version 2
File size : 2.70 GiB
Duration : 1 h 32 min
Overall bit rate : 4 187 kb/s
Movie name : Arsenal.2017.1080p.WEB-DL.DD5.1.H264-FGT
Encoded date : UTC 2017-01-06T10:06:23Z
Writing application : HandBrake 0.10.5 2016021100
Writing library : Lavf55.12.0 / Lavf55.12.0

Video
ID : 1
Format : AVC
Format/Info : Advanced Video Codec
Format profile : High@L4.1
Format settings, CABAC : Yes
Format settings, ReFrames : 4 frames
Codec ID : V_MPEG4/ISO/AVC
Duration : 1 h 32 min
Bit rate : 3 800 kb/s
Width : 1 280 pixels
Height : 532 pixels
Display aspect ratio : 2.40:1
Frame rate mode : Constant
Frame rate : 23.976 (24000/1001) FPS
Color space : YUV
Chroma subsampling : 4:2:0
Bit depth : 8 bits
Scan type : Progressive
Bits/(Pixel*Frame) : 0.233
Stream size : 2.40 GiB (89%)
Writing library : x264 core 142 r2479 dd79a61
Encoding settings : cabac=1 / ref=1 / deblock=1:0:0 / analyse=0x3:0x113 / me=hex / subme=2 / psy=1 / psy_rd=1.00:0.00 / mixed_ref=0 / me_range=16 / chroma_me=1 / trellis=0 / 8x8dct=1 / cqm=0 / deadzone=21,11 / fast_pskip=1 / chroma_qp_offset=0 / threads=12 / lookahead_threads=4 / sliced_threads=0 / nr=0 / decimate=1 / interlaced=0 / bluray_compat=0 / constrained_intra=0 / bframes=3 / b_pyramid=2 / b_adapt=1 / b_bias=0 / direct=1 / weightb=1 / open_gop=0 / weightp=1 / keyint=240 / keyint_min=24 / scenecut=40 / intra_refresh=0 / rc_lookahead=10 / rc=2pass / mbtree=1 / bitrate=3800 / ratetol=1.0 / qcomp=0.60 / qpmin=0 / qpmax=69 / qpstep=4 / cplxblur=20.0 / qblur=0.5 / vbv_maxrate=62500 / vbv_bufsize=78125 / nal_hrd=none / filler=0 / ip_ratio=1.40 / aq=1:1.00
Default : Yes
Forced : No
Color range : Limited
Color primaries : BT.709
Transfer characteristics : BT.709
Matrix coefficients : BT.709

Audio
ID : 2
Format : AC-3
Format/Info : Audio Coding 3
Format profile : Dolby Digital
Mode extension : CM (complete main)
Format settings, Endianness : Big
Codec ID : A_AC3
Duration : 1 h 32 min
Bit rate mode : Constant
Bit rate : 384 kb/s
Channel(s) : 2 channels
Channel positions : Front: L R
Sampling rate : 48.0 kHz
Frame rate : 31.250 FPS (1536 spf)
Compression mode : Lossy
Delay relative to video : -5 ms
Stream size : 253 MiB (9%)
Title : Stereo
Language : English
Default : Yes
Forced : No

Menu
00:00:00.000 : :1
00:11:20.096 : :2
00:24:30.135 : 
00:38:06.117 : :4
00:48:52.137 : :5
01:01:52.083 : :6
01:15:19.098 : :7
01:26:48.161 : :8

Screens.png

Click Image To View Full Size

eZWIN.th.jpg
Click To View Screenshot
Click To View Screenshot
Click To View Screenshot


1 个附件 售价 大小 下载 时间

Arsenal.2017.720p.WEB-DL.x264.AC3-Moita[btbtt.co].torrent 0 金币 4.63K 3386 次 2月前

#1楼
发帖时间:2017-01-08 22:06:54   |   回复数:5
blue23
超凡入圣№
感谢楼主分享
2月前 #2楼
liyouchai
超凡入圣№
谢谢楼主分享资源
2月前 #3楼
albb2188
武林高手
感谢楼主提供分享影片资源!
2月前 #4楼
911degrees
一代宗师
非常感谢,谢谢分享
2月前 #5楼
linbr
武林高手
阿森纳。。。。。
2月前 #6楼
游客组