HELLO小虾
版主

[2017] [欧美] [动作] [BD-1080P] [BT下载]死亡飞车2050 Death.Race.2050.2017.1080p.BluRay.x264.DTS-MT 10.69GB

-->

◎译  名 死亡飞车2050

◎片  名 Death Race 2050

◎年  代 2016

◎国  家 美国

◎类  别 喜剧/动作/科幻

◎语  言 英语

◎上映日期 January 17, 2017

◎IMDb评分  N/A

◎IMDb链接  http://imdb.com/title/tt5493706/

◎BT之家整理 http://www.btbtt.co  

◎导  演 G.J. Echternkamp

◎主  演 马努·贝内特 Manu Bennett

      马尔科姆·麦克道威尔 Malcolm McDowell

      Marci Miller


◎简  介


  The year 2050 the planet has become overpopulated| to help control population the government develops a race. The Death Race. Annually competitors race across thecountry scoring points for killing people with their vehicles.


Video
ID                                       : 1
Format                                   : AVC
Format/Info                              : Advanced Video Codec
Format profile                           : High@L4.1
Format settings, CABAC                   : Yes
Format settings, ReFrames                : 4 frames
Codec ID                                 : V_MPEG4/ISO/AVC
Duration                                 : 1h 32mn
Bit rate                                 : 14.7 Mbps
Width                                    : 1 920 pixels
Height                                   : 1 080 pixels
Display aspect ratio                     : 16:9
Frame rate mode                          : Constant
Frame rate                               : 23.976 (24000/1001) fps
Color space                              : YUV
Chroma subsampling                       : 4:2:0
Bit depth                                : 8 bits
Scan type                                : Progressive
Bits/(Pixel*Frame)                       : 0.295
Stream size                              : 9.50 GiB (89%)
Language                                 : English
Default                                  : Yes
Forced                                   : No

Audio
ID                                       : 2
Format                                   : DTS
Format/Info                              : Digital Theater Systems
Mode                                     : 16
Format settings, Endianness              : Big
Codec ID                                 : A_DTS
Duration                                 : 1h 32mn
Bit rate mode                            : Constant
Bit rate                                 : 1 509 Kbps
Channel(s)                               : 6 channels
Channel positions                        : Front: L C R, Side: L R, LFE
Sampling rate                            : 48.0 KHz
Frame rate                               : 93.750 fps (512 spf)
Bit depth                                : 24 bits
Compression mode                         : Lossy
Stream size                              : 1 001 MiB (9%)
Language                                 : English
Default                                  : Yes
Forced                                   : No





1 个附件 售价 大小 下载 时间

Death.Race.2050.2017.1080p.BluRay.x264.DTS-MT[btbtt.co].torrent 0 金币 54.04K 2996 次 1月前

#1楼
发帖时间:2017-01-08 20:48:59   |   回复数:3
liyouchai
超凡入圣№
谢谢楼主分享资源
1月前 #2楼
blue23
超凡入圣№
感谢楼主分享
1月前 #3楼
911degrees
一代宗师
非常感谢,谢谢分享
1月前 #4楼
游客组