aoloffline
版主

[2011] [欧美] [惊悚] [BD-1080P] [BT下载]失事 Wrecked.2011.1080p.BluRay.X264-AMIABLE 6.56GB

-->

◎译  名 失事

◎片  名 Wrecked

◎年  代 2010

◎国  家 美国/加拿大

◎类  别 惊悚

◎语  言 英语

◎上映日期 2011-04-01(美国)

◎IMDb评分  5.3/10 from 13,251 users

◎IMDb链接  http://www.imdb.com/title/tt1316622/

◎豆瓣评分 5.6/10 from 2,638 users

◎豆瓣链接 https://movie.douban.com/subject/6040359/

◎BT之家整理 http://www.btbtt.co

◎片  长 91分钟

◎导  演 Michael Greenspan

◎主  演 艾德里安·布洛迪 Adrien Brody

      卡洛琳·达芙娜 Caroline Dhavernas

      Ryan Robbins

      艾德里安·霍姆斯 Adrian Holmes

      杰克博·布莱尔 Jacob Blair


◎简  介


  荒郊野外,深山老林,一辆失事的汽车斜倚在山坡上,其周身弥漫着死亡的气息。副驾驶座上,一个男人(艾德里安·布洛迪 Adrien Brody 饰)从昏迷中苏醒,他全身上下到处是伤痕,右腿更骨折且被变形的车紧紧夹住。糟糕的是,因为车祸时的剧烈冲击,令他出现暂时性的失忆。他不知道自己的姓名与身份,从何而来,因何险些横尸这片森林之中,后作那个正慢慢腐烂的男人跟他又是怎样的关系。在猜测身份的过程中,这个男人还必须面对更为严重的生计问题,车上不仅没有食物水源,外面更有各种凶猛的野兽四处逡巡,死神的身影从未离开半分。

  不久,一名女性(Caroline Dhavernas 饰)出现在车子附近,而从车在广播中男人似乎也渐渐明了自己的真实身份……



Video
ID                                       : 1
Format                                   : AVC
Format/Info                              : Advanced Video Codec
Format profile                           : High@L4.1
Format settings, CABAC                   : Yes
Format settings, ReFrames                : 5 frames
Codec ID                                 : V_MPEG4/ISO/AVC
Duration                                 : 1h 29mn
Bit rate                                 : 8 938 Kbps
Width                                    : 1 920 pixels
Height                                   : 800 pixels
Display aspect ratio                     : 2.40:1
Frame rate mode                          : Constant
Frame rate                               : 23.976 (24000/1001) fps
Color space                              : YUV
Chroma subsampling                       : 4:2:0
Bit depth                                : 8 bits
Scan type                                : Progressive
Bits/(Pixel*Frame)                       : 0.243
Stream size                              : 5.48 GiB (84%)
Writing library                          : x264 core 116 r2057 0ba8a9c
Encoding settings                        : cabac=1 / ref=5 / deblock=1:0:0 / analyse=0x3:0x113 / me=umh / subme=8 / psy=1 / psy_rd=1.00:0.00 / mixed_ref=1 / me_range=16 / chroma_me=1 / trellis=1 / 8x8dct=1 / cqm=0 / deadzone=21,11 / fast_pskip=1 / chroma_qp_offset=-2 / threads=12 / sliced_threads=0 / nr=0 / decimate=1 / interlaced=0 / bluray_compat=0 / constrained_intra=0 / bframes=3 / b_pyramid=2 / b_adapt=2 / b_bias=0 / direct=3 / weightb=1 / open_gop=0 / weightp=2 / keyint=240 / keyint_min=24 / scenecut=40 / intra_refresh=0 / rc_lookahead=50 / rc=2pass / mbtree=1 / bitrate=8938 / ratetol=1.0 / qcomp=0.60 / qpmin=0 / qpmax=69 / qpstep=4 / cplxblur=20.0 / qblur=0.5 / ip_ratio=1.40 / aq=1:1.00
Language                                 : English
Default                                  : Yes
Forced                                   : No

Audio
ID                                       : 2
Format                                   : DTS
Format/Info                              : Digital Theater Systems
Mode                                     : 16
Format settings, Endianness              : Big
Codec ID                                 : A_DTS
Duration                                 : 1h 29mn
Bit rate mode                            : Constant
Bit rate                                 : 1 509 Kbps
Channel(s)                               : 6 channels
Channel positions                        : Front: L C R, Side: L R, LFE
Sampling rate                            : 48.0 KHz
Frame rate                               : 93.750 fps (512 spf)
Bit depth                                : 24 bits
Compression mode                         : Lossy
Stream size                              : 970 MiB (14%)
Language                                 : English
Default                                  : Yes
Forced                                   : No

Text
ID                                       : 3
Format                                   : UTF-8
Codec ID                                 : S_TEXT/UTF8
Codec ID/Info                            : UTF-8 Plain Text
Language                                 : English
Default                                  : No
Forced                                   : No

Menu
00:00:00.000                             : en:00:00:00.000
00:07:57.018                             : en:00:07:57.018
00:15:40.314                             : en:00:15:40.314
00:21:15.733                             : en:00:21:15.733
00:27:40.075                             : en:00:27:40.075
00:34:43.331                             : en:00:34:43.331
00:41:34.742                             : en:00:41:34.742
00:49:26.839                             : en:00:49:26.839
00:56:17.583                             : en:00:56:17.583
01:04:36.998                             : en:01:04:36.998
01:11:19.609                             : en:01:11:19.609
01:18:27.453                             : en:01:18:27.453
01:24:36.321                             : en:01:24:36.321


1 个附件 售价 大小 下载 时间

Wrecked.2011.1080p.BluRay.X264-AMIABLE[btbtt.co].torrent 0 金币 66.17K 901 次 10月前

#1楼
发帖时间:2017-01-08 10:06:39   |   回复数:3
blue23
隐世仙人♂
感谢楼主分享
10月前 #2楼
911degrees
一代宗师
非常感谢,谢谢分享
10月前 #3楼
liyouchai
超凡入圣№
谢谢楼主分享资源
10月前 #4楼
游客组