aoloffline
版主

[2008] [欧美] [动画] [BD-1080P] [BT下载]和巴什尔跳华尔兹 Waltz.with.Bashir.2008.1080p.BluRay.x264.DTS-FGT 15.15GB

-->

◎译  名 和巴什尔跳华尔兹/与巴什共舞/与魔共舞/与巴席尔跳华尔滋

◎片  名 ואלס עם באשיר

◎年  代 2008

◎国  家 以色列/德国/法国/美国/芬兰/瑞士/比利时/澳大利亚

◎类  别 动画/纪录片/传记

◎语  言 希伯来语/德语/英语/阿拉伯语

◎上映日期 2008-06-12

◎IMDb评分  8.0/10 from 47,157 users

◎IMDb链接  http://www.imdb.com/title/tt1185616/

◎豆瓣评分 8.6/10 from 11,943 users

◎豆瓣链接 https://movie.douban.com/subject/3047617/

◎BT之家整理 http://www.btbtt.co

◎片  长 90 分钟

◎导  演 阿里·福尔曼 Ari Folman

◎主  演 Ron Ben-Yishai

      Ronny Dayag

      Ari Folman

      Dror Harazi

      耶海兹拉扎诺夫 Yehezkel Lazarov


◎简  介


  本片是第一部以动画形式拍摄的纪录片。以色列导演阿里•福尔曼19岁时作为以色列士兵亲眼目睹1982年黎巴嫩贝鲁特萨巴拉与沙提拉巴勒斯坦难民营大屠杀。二十多年后,失忆的福尔曼通过与当年的战友、朋友、心理医生和亲历惨案的军人与记者的对话采访,试图回忆起屠杀的真相。随着福尔曼的记忆被逐步唤起,1982年黎巴嫩战争的惨象逐帧浮现。

  本片获得2008年恺撒奖最佳外语片、金球奖最佳外语片、洛杉矶电影协会最佳动画片奖和最佳纪录片亚军,并被提名奥斯卡最佳外语片、英国电影电视协会最佳非英语影片和最佳动画片,并入主2009年嘎纳金棕榈奖主竞赛单元。


◎获奖情况


  第81届奥斯卡金像奖  (2009)

  最佳外语片(提名)


  第61届戛纳电影节  (2008)

  主竞赛单元 金棕榈奖(提名) 阿里·福尔曼


  第66届金球奖  (2009)

  电影类 最佳外语片


  第36届动画安妮奖  (2009)

  最佳动画长片(提名)

  最佳导演(提名) 阿里·福尔曼

  最佳编剧(提名) 阿里·福尔曼

  最佳配乐(提名) Max Richter


Video
ID                                       : 1
Format                                   : AVC
Format/Info                              : Advanced Video Codec
Format profile                           : High@L4.1
Format settings, CABAC                   : Yes
Format settings, ReFrames                : 4 frames
Codec ID                                 : V_MPEG4/ISO/AVC
Duration                                 : 1h 30mn
Bit rate                                 : 22.5 Mbps
Width                                    : 1 920 pixels
Height                                   : 1 080 pixels
Display aspect ratio                     : 16:9
Frame rate mode                          : Constant
Frame rate                               : 23.976 (24000/1001) fps
Color space                              : YUV
Chroma subsampling                       : 4:2:0
Bit depth                                : 8 bits
Scan type                                : Progressive
Bits/(Pixel*Frame)                       : 0.453
Stream size                              : 13.9 GiB (92%)
Writing library                          : x264 core 146 r2538 121396c
Encoding settings                        : cabac=1 / ref=4 / deblock=1:-3:-3 / analyse=0x3:0x113 / me=umh / subme=10 / psy=1 / psy_rd=1.05:0.00 / mixed_ref=1 / me_range=32 / chroma_me=1 / trellis=2 / 8x8dct=1 / cqm=0 / deadzone=21,11 / fast_pskip=0 / chroma_qp_offset=-2 / threads=12 / lookahead_threads=2 / sliced_threads=0 / nr=0 / decimate=0 / interlaced=0 / bluray_compat=0 / constrained_intra=0 / bframes=8 / b_pyramid=2 / b_adapt=2 / b_bias=0 / direct=3 / weightb=1 / open_gop=0 / weightp=2 / keyint=240 / keyint_min=23 / scenecut=40 / intra_refresh=0 / rc_lookahead=240 / rc=2pass / mbtree=0 / bitrate=22500 / ratetol=1.0 / qcomp=0.68 / qpmin=0 / qpmax=69 / qpstep=4 / cplxblur=20.0 / qblur=0.5 / vbv_maxrate=62500 / vbv_bufsize=78125 / nal_hrd=none / filler=0 / ip_ratio=1.30 / pb_ratio=1.15 / aq=1:0.73
Default                                  : Yes
Forced                                   : No

Audio
ID                                       : 2
Format                                   : DTS
Format/Info                              : Digital Theater Systems
Mode                                     : 16
Format settings, Endianness              : Big
Codec ID                                 : A_DTS
Duration                                 : 1h 30mn
Bit rate mode                            : Constant
Bit rate                                 : 1 509 Kbps
Channel(s)                               : 6 channels
Channel positions                        : Front: L C R, Side: L R, LFE
Sampling rate                            : 48.0 KHz
Frame rate                               : 93.750 fps (512 spf)
Bit depth                                : 24 bits
Compression mode                         : Lossy
Stream size                              : 976 MiB (6%)
Default                                  : Yes
Forced                                   : No

Text
ID                                       : 3
Format                                   : UTF-8
Codec ID                                 : S_TEXT/UTF8
Codec ID/Info                            : UTF-8 Plain Text
Language                                 : English
Default                                  : Yes
Forced                                   : No

Menu
00:00:00.000                             : en:Chapter 1
00:06:37.981                             : en:Chapter 2
00:12:06.351                             : en:Chapter 3
00:20:30.229                             : en:Chapter 4
00:26:02.644                             : en:Chapter 5
00:33:31.968                             : en:Chapter 6
00:37:27.245                             : en:Chapter 7
00:43:43.371                             : en:Chapter 8
00:49:16.579                             : en:Chapter 9
00:55:46.677                             : en:Chapter 10
01:00:57.195                             : en:Chapter 11
01:06:02.750                             : en:Chapter 12
01:12:06.822                             : en:Chapter 13
01:17:07.623                             : en:Chapter 14
01:21:49.905                             : en:Chapter 15





1 个附件 售价 大小 下载 时间

Waltz.with.Bashir.2008.1080p.BluRay.x264.DTS-FGT[btbtt.co].torrent 0 金币 76.36K 861 次 11天前

#1楼
发帖时间:2017-01-08 10:04:43   |   回复数:3
blue23
超凡入圣№
感谢楼主分享
11天前 #2楼
911degrees
一代宗师
非常感谢,谢谢分享
11天前 #3楼
liyouchai
一代宗师
谢谢楼主分享资源
11天前 #4楼
游客组