aoloffline
版主

[2010] [欧美] [纪录] [BD-1080P] [BT下载]CREATION唱片:颠倒传奇 Upside.Down.2010.1080p.BluRay.X264-7SinS 6.5GB

-->

◎译  名 CREATION唱片: 颠倒传奇

◎片  名 Upside Down: The Creation Records Story

◎年  代 2010

◎国  家 英国

◎类  别 纪录片

◎语  言 英语

◎上映日期 2010

◎IMDb评分  7.2/10 from 473 users

◎IMDb链接  http://www.imdb.com/title/tt1764726/

◎豆瓣评分 8.8/10 from 262 users

◎豆瓣链接 https://movie.douban.com/subject/6097350/

◎BT之家整理 http://www.btbtt.co

◎片  长 101 min

◎导  演 Danny O'Connor

◎主  演 Alan McGee

      诺尔·加拉格 Bobby Gillespie

      诺尔·加拉格 Noel Gallagher


◎简  介


  The definitive film about Creation Records, one of the world's most successful and colorful independent labels.

  Over a quarter of a century since it began and a decade after it folded, this is the definitive film about Creation Records, one of the world’s most successful and colorful independent labels. This is the story of the rock n roll dream and its accompanying nightmares. Millions of sales on both sides of the Atlantic, near bankruptcy, pills, thrills, spats, prats, success, excess, pick me ups, breakdowns and of course some of THE defining music of the late 20th Century. This is the definitive and fully authorised story of the UK’s most inspired and dissolute label, from the Jesus & Mary Chain at the Living Room to Oasis at Knebworth.



Video
ID                                       : 1
Format                                   : AVC
Format/Info                              : Advanced Video Codec
Format profile                           : High@L4.1
Format settings, CABAC                   : Yes
Format settings, ReFrames                : 4 frames
Codec ID                                 : V_MPEG4/ISO/AVC
Duration                                 : 1h 40mn
Bit rate                                 : 8 527 Kbps
Width                                    : 1 920 pixels
Height                                   : 1 080 pixels
Display aspect ratio                     : 16:9
Frame rate mode                          : Constant
Frame rate                               : 23.976 (24000/1001) fps
Original frame rate                      : 23.976 (23976/1000) fps
Color space                              : YUV
Chroma subsampling                       : 4:2:0
Bit depth                                : 8 bits
Scan type                                : Progressive
Bits/(Pixel*Frame)                       : 0.172
Stream size                              : 5.88 GiB (90%)
Writing library                          : x264 core 115 r1995 c1e60b9
Encoding settings                        : cabac=1 / ref=4 / deblock=1:0:0 / analyse=0x3:0x133 / me=umh / subme=7 / psy=1 / psy_rd=1.00:0.00 / mixed_ref=1 / me_range=16 / chroma_me=1 / trellis=1 / 8x8dct=1 / cqm=0 / deadzone=21,11 / fast_pskip=0 / chroma_qp_offset=-2 / threads=12 / sliced_threads=0 / nr=0 / decimate=1 / interlaced=0 / bluray_compat=0 / constrained_intra=0 / bframes=3 / b_pyramid=2 / b_adapt=1 / b_bias=0 / direct=1 / weightb=1 / open_gop=0 / weightp=2 / keyint=250 / keyint_min=23 / scenecut=40 / intra_refresh=0 / rc_lookahead=40 / rc=2pass / mbtree=1 / bitrate=8527 / ratetol=1.0 / qcomp=0.60 / qpmin=0 / qpmax=69 / qpstep=4 / cplxblur=20.0 / qblur=0.5 / ip_ratio=1.40 / aq=1:1.00
Language                                 : English
Default                                  : Yes
Forced                                   : No

Audio
ID                                       : 2
Format                                   : DTS
Format/Info                              : Digital Theater Systems
Mode                                     : 16
Format settings, Endianness              : Big
Codec ID                                 : A_DTS
Duration                                 : 1h 40mn
Bit rate mode                            : Constant
Bit rate                                 : 768 Kbps
Channel(s)                               : 6 channels
Channel positions                        : Front: L C R, Side: L R, LFE
Sampling rate                            : 48.0 KHz
Frame rate                               : 93.750 fps (512 spf)
Bit depth                                : 24 bits
Compression mode                         : Lossy
Stream size                              : 555 MiB (8%)
Language                                 : English
Default                                  : Yes
Forced                                   : No





1 个附件 售价 大小 下载 时间

Upside.Down.The.Creation.Records.Story.2010.1080p.BluRay.X264-7SinS[btbtt.co].torrent 0 金币 66.19K 820 次 11月前

#1楼
发帖时间:2017-01-08 10:00:34   |   回复数:3
blue23
隐世仙人♂
感谢楼主分享
11月前 #2楼
911degrees
超凡入圣№
非常感谢,谢谢分享
11月前 #3楼
liyouchai
超凡入圣№
谢谢楼主分享资源
11月前 #4楼
游客组