aoloffline
版主

[2009] [欧美] [动画] [BD-1080P] [BT下载]凯尔经的秘密 The.Secret.of.Kells.2009.1080p.BluRay.X264-AMIABLE 4.37GB

-->

◎译  名 凯尔经的秘密/凯尔斯的秘密/凯尔斯修道院的秘密/布兰登和凯尔斯福音书/布伦达和凯尔圣书的秘密

◎片  名 The Secret of Kells

◎年  代 2009

◎国  家 爱尔兰/法国/比利时

◎类  别 剧情/动画/奇幻

◎语  言 英语

◎上映日期 2009-02-11(法国)

◎IMDb评分  7.7/10 from 23,848 users

◎IMDb链接  http://www.imdb.com/title/tt0485601/

◎豆瓣评分 8.4/10 from 37,783 users

◎豆瓣链接 https://movie.douban.com/subject/3212221/

◎BT之家整理 http://www.btbtt.co

◎片  长 75分钟

◎导  演 汤姆·摩尔 Tomm Moore / Nora Twomey

◎主  演 伊万·麦克奎尔 Evan McGuire

      布莱丹·格里森 Brendan Gleeson

      肖恩·列侬 Sean Lennon

      Christen Mooney

      Liam Hourican

      Michael McGrath

      Paul Young


◎简  介


  在遥远的爱尔兰,聪颖纯真的少年修士布兰登(伊万·麦克奎尔 Evan McGuire 配音)生活在一座高墙围筑的修道院内。为了抵抗维京人的入侵,院墙不断加高,卡拉院长(布莱丹·格里森 Brendan Gleeson 配音)更严格禁止布兰登他们踏入外部世界。某天,一名留着长发、幽默风趣的修士来到修道院,他便是闻名遐迩的艾奥娜绘经师伊丹(米奇·拉里 Mick Lally 配音)。此前伊丹持续创作那部重要的宗教典籍《凯尔经》,然而异族的侵略使他不得不中断这项神圣的工作。为《凯尔经》所吸引的布兰登,决心帮助伊丹完成经典的绘制,为此他不惜挑战禁令走出修道院。外面的世界充满新奇和危险……

  本片荣获2009年昂西国际动画电影节观众奖最佳影片奖、2009年萨格勒布国际动画电影节特别提及。


◎获奖情况


  第82届奥斯卡金像奖  (2010)

  最佳动画长片(提名) 汤姆·摩尔


  第37届动画安妮奖  (2010)

  最佳动画长片(提名)



Video
ID                                       : 1
Format                                   : AVC
Format/Info                              : Advanced Video Codec
Format profile                           : High@L4.1
Format settings, CABAC                   : Yes
Format settings, ReFrames                : 4 frames
Codec ID                                 : V_MPEG4/ISO/AVC
Duration                                 : 1h 18mn
Bit rate                                 : 6 442 Kbps
Width                                    : 1 920 pixels
Height                                   : 1 080 pixels
Display aspect ratio                     : 16:9
Frame rate mode                          : Constant
Frame rate                               : 23.976 (24000/1001) fps
Color space                              : YUV
Chroma subsampling                       : 4:2:0
Bit depth                                : 8 bits
Scan type                                : Progressive
Bits/(Pixel*Frame)                       : 0.130
Stream size                              : 3.46 GiB (79%)
Writing library                          : x264 core 105 r1724 b02df7b
Encoding settings                        : cabac=1 / ref=4 / deblock=1:0:0 / analyse=0x3:0x133 / me=umh / subme=7 / psy=1 / psy_rd=1.00:0.00 / mixed_ref=1 / me_range=16 / chroma_me=1 / trellis=1 / 8x8dct=1 / cqm=0 / deadzone=21,11 / fast_pskip=0 / chroma_qp_offset=-2 / threads=12 / sliced_threads=0 / nr=0 / decimate=1 / interlaced=0 / constrained_intra=0 / bframes=3 / b_pyramid=2 / b_adapt=1 / b_bias=0 / direct=3 / weightb=1 / open_gop=0 / weightp=2 / keyint=240 / keyint_min=24 / scenecut=40 / intra_refresh=0 / rc_lookahead=40 / rc=2pass / mbtree=1 / bitrate=6442 / ratetol=1.0 / qcomp=0.60 / qpmin=10 / qpmax=51 / qpstep=4 / cplxblur=20.0 / qblur=0.5 / ip_ratio=1.40 / aq=1:1.00
Language                                 : English
Default                                  : Yes
Forced                                   : No

Audio
ID                                       : 2
Format                                   : DTS
Format/Info                              : Digital Theater Systems
Mode                                     : 16
Format settings, Endianness              : Big
Codec ID                                 : A_DTS
Duration                                 : 1h 18mn
Bit rate mode                            : Constant
Bit rate                                 : 1 509 Kbps
Channel(s)                               : 6 channels
Channel positions                        : Front: L C R, Side: L R, LFE
Sampling rate                            : 48.0 KHz
Frame rate                               : 93.750 fps (512 spf)
Bit depth                                : 24 bits
Compression mode                         : Lossy
Stream size                              : 850 MiB (19%)
Language                                 : English
Default                                  : Yes
Forced                                   : No

Text
ID                                       : 3
Format                                   : UTF-8
Codec ID                                 : S_TEXT/UTF8
Codec ID/Info                            : UTF-8 Plain Text
Language                                 : English
Default                                  : No
Forced                                   : No

Menu
00:00:00.000                             : en:00:00:00.000
00:02:13.300                             : en:00:02:13.300
00:10:57.407                             : en:00:10:57.407
00:19:49.897                             : en:00:19:49.897
00:31:47.656                             : en:00:31:47.656
00:35:53.693                             : en:00:35:53.693
00:43:01.287                             : en:00:43:01.287
00:49:01.522                             : en:00:49:01.522
00:54:30.225                             : en:00:54:30.225
00:58:43.770                             : en:00:58:43.770
01:06:47.003                             : en:01:06:47.003
01:13:25.568                             : en:01:13:25.568





1 个附件 售价 大小 下载 时间

The.Secret.of.Kells.2009.1080p.BluRay.X264-AMIABLE[btbtt.co].torrent 0 金币 88.08K 1189 次 2月前

#1楼
发帖时间:2017-01-08 09:56:49   |   回复数:3
blue23
超凡入圣№
感谢楼主分享
2月前 #2楼
911degrees
一代宗师
非常感谢,谢谢分享
2月前 #3楼
liyouchai
超凡入圣№
谢谢楼主分享资源
2月前 #4楼
游客组