aoloffline
版主

[2011] [欧美] [恐怖] [BD-1080P] [BT下载]一家人/在爱里 The.Family.2011.UNCUT.1080p.BluRay.x264.DTS-FGT 6.23GB

-->

◎译  名 一家人/在爱里

◎片  名 The.Family

◎年  代 2011

◎国  家 美国

◎类  别 惊悚/恐怖

◎语  言 英语

◎IMDb评分  3.9/10 from 311 users

◎IMDb链接  http://www.imdb.com/title/tt1728973/

◎BT之家整理 http://www.btbtt.co

◎片  长 88 min

◎导  演 Joe Hollow, Wolfgang Meyer

◎主  演 Mark Hanson, Joe Hollow, Angie Savage | See full cast and crew


◎简  介


    奇普(Sebastian Banes 饰)是个早熟的六岁男孩,他有两个爸爸:寇迪(Trevor St. John 饰)和乔伊(Patrick Wang 王沛智 饰)。一家三口住在美国田纳西州平静的乡间。当寇迪因车祸意外去世后,乔伊惟有努力面对人生。但正当新生活开始时,却得知寇迪在他未更新的遗嘱中任命了他的姊姊为奇普的监护人。在感恩节假期乔伊带奇普去寇迪姊姊家后,从此再也看不到他的孩子了。乔伊为此走上了漫长而绝望的争夺抚养权之路。 

  本片将种族、阶级与性别问题提出了另一种观看的角度,使人反思传统与家庭的关系,是华裔电影人王沛智自编自导自演的处女作,入围2012年美国独立精神奖,是一部关于爱和亲情的感人佳作。



Video
ID                                       : 1
Format                                   : AVC
Format/Info                              : Advanced Video Codec
Format profile                           : High@L4.1
Format settings, CABAC                   : Yes
Format settings, ReFrames                : 4 frames
Codec ID                                 : V_MPEG4/ISO/AVC
Duration                                 : 1h 27mn
Bit rate                                 : 8 718 Kbps
Width                                    : 1 920 pixels
Height                                   : 1 080 pixels
Display aspect ratio                     : 16:9
Frame rate mode                          : Constant
Frame rate                               : 23.976 (24000/1001) fps
Color space                              : YUV
Chroma subsampling                       : 4:2:0
Bit depth                                : 8 bits
Scan type                                : Progressive
Bits/(Pixel*Frame)                       : 0.175
Stream size                              : 5.18 GiB (83%)
Writing library                          : x264 core 146 r2538 121396c
Encoding settings                        : cabac=1 / ref=4 / deblock=1:0:0 / analyse=0x3:0x3 / me=dia / subme=1 / psy=1 / psy_rd=1.00:0.00 / mixed_ref=0 / me_range=16 / chroma_me=1 / trellis=0 / 8x8dct=1 / cqm=0 / deadzone=21,11 / fast_pskip=1 / chroma_qp_offset=0 / threads=6 / lookahead_threads=1 / sliced_threads=0 / nr=0 / decimate=1 / interlaced=0 / bluray_compat=0 / constrained_intra=0 / bframes=3 / b_pyramid=2 / b_adapt=1 / b_bias=0 / direct=1 / weightb=1 / open_gop=0 / weightp=1 / keyint=240 / keyint_min=23 / scenecut=40 / intra_refresh=0 / rc=abr / mbtree=0 / bitrate=8718 / ratetol=1.0 / qcomp=0.60 / qpmin=10 / qpmax=51 / qpstep=4 / ip_ratio=1.40 / pb_ratio=1.30 / aq=1:1.00
Language                                 : English
Default                                  : Yes
Forced                                   : No

Audio
ID                                       : 2
Format                                   : DTS
Format/Info                              : Digital Theater Systems
Mode                                     : 16
Format settings, Endianness              : Big
Codec ID                                 : A_DTS
Duration                                 : 1h 27mn
Bit rate mode                            : Constant
Bit rate                                 : 1 509 Kbps
Channel(s)                               : 6 channels
Channel positions                        : Front: L C R, Side: L R, LFE
Sampling rate                            : 48.0 KHz
Frame rate                               : 93.750 fps (512 spf)
Bit depth                                : 24 bits
Compression mode                         : Lossy
Stream size                              : 946 MiB (15%)
Language                                 : English
Default                                  : No
Forced                                   : No

Menu
00:00:00.000                             : en:00:00:00.000
00:10:00.600                             : en:00:10:00.600
00:20:01.200                             : en:00:20:01.200
00:30:01.800                             : en:00:30:01.800
00:40:02.400                             : en:00:40:02.400
00:50:03.000                             : en:00:50:03.000
01:00:03.600                             : en:01:00:03.600
01:10:04.200                             : en:01:10:04.200





1 个附件 售价 大小 下载 时间

The.Family.2011.UNCUT.1080p.BluRay.x264.DTS-FGT[btbtt.co].torrent 0 金币 62.90K 477 次 4月前

#1楼
发帖时间:2017-01-08 09:54:58   |   回复数:4
blue23
超凡入圣№
感谢楼主分享
4月前 #2楼
911degrees
一代宗师
非常感谢,谢谢分享
4月前 #3楼
pwf2000
江湖小虾
这电影看着挺吓人
4月前 #4楼
liyouchai
超凡入圣№
谢谢楼主分享资源
4月前 #5楼
游客组