aoloffline
版主

[更 早] [欧美] [动作] [BD-1080P] [BT下载]双狙人/狙击手/火战士 Sniper.1993.1080p.BluRay.x264.DTS-FGT 9.11GB

-->

◎译  名 双狙人/狙击手/火战士

◎片  名 Sniper

◎年  代 1993

◎国  家 美国/秘鲁

◎类  别 动作/剧情/惊悚

◎语  言 英语/西班牙语

◎上映日期 1993-01-29

◎IMDb评分  6.1/10 from 19,618 users

◎IMDb链接  http://www.imdb.com/title/tt0108171/

◎豆瓣评分 7.1/10 from 3,203 users

◎豆瓣链接 https://movie.douban.com/subject/1295484/

◎BT之家整理 http://www.btbtt.co

◎片  长 98 分钟

◎导  演 路易斯·罗沙 Luis Llosa

◎主  演 汤姆·贝伦杰 Tom Berenger

      比利·赞恩 Billy Zane


◎简  介


  硬汉托马斯·贝克特(汤姆·贝伦杰 Tom Berenger饰)是一位美国海军陆战队的老兵。然而冷酷无情的贝克特却因为曾经不顾他的战友而臭名昭著。这一次,美国情报部门派遣年轻的神枪手理查德·米勒(比利·赞恩 Billy Zane饰)与贝克特搭档,前往巴拿马完成一次刺杀任务。亦敌亦友的一老一少深入丛林,在远离后方支援的情况下,两人却各怀鬼胎,甚至互相攻击。但随着任务的进行,两人开始慢慢地接纳彼此,在紧要关头互相救助。

  本部由路易斯·罗沙执导的新派战争片《狙击手》,以美国陆军狙击手特种部队为故事题材,另辟蹊径地聚焦资深狙击手和年轻情报员之间的身份与感情矛盾来制造戏剧张力,加上极富震撼力的视觉效果,营造了一部令人叫绝的丛林动作大戏。


Video
ID                                       : 1
Format                                   : AVC
Format/Info                              : Advanced Video Codec
Format profile                           : High@L4.1
Format settings, CABAC                   : Yes
Format settings, ReFrames                : 4 frames
Codec ID                                 : V_MPEG4/ISO/AVC
Duration                                 : 1h 39mn
Bit rate                                 : 11.4 Mbps
Width                                    : 1 920 pixels
Height                                   : 1 040 pixels
Display aspect ratio                     : 1.85:1
Frame rate mode                          : Constant
Frame rate                               : 23.976 (24000/1001) fps
Color space                              : YUV
Chroma subsampling                       : 4:2:0
Bit depth                                : 8 bits
Scan type                                : Progressive
Bits/(Pixel*Frame)                       : 0.238
Stream size                              : 7.88 GiB (87%)
Writing library                          : x264 core 148 r2638 7599210
Encoding settings                        : cabac=1 / ref=4 / deblock=1:-1:-1 / analyse=0x3:0x113 / me=umh / subme=8 / psy=1 / psy_rd=0.99:0.01 / mixed_ref=1 / me_range=16 / chroma_me=1 / trellis=1 / 8x8dct=1 / cqm=0 / deadzone=21,11 / fast_pskip=0 / chroma_qp_offset=-3 / threads=12 / lookahead_threads=2 / sliced_threads=0 / nr=0 / decimate=1 / interlaced=0 / bluray_compat=0 / constrained_intra=0 / bframes=3 / b_pyramid=2 / b_adapt=2 / b_bias=0 / direct=3 / weightb=1 / open_gop=0 / weightp=2 / keyint=240 / keyint_min=23 / scenecut=40 / intra_refresh=0 / rc_lookahead=40 / rc=crf / mbtree=1 / crf=20.0 / qcomp=0.60 / qpmin=0 / qpmax=69 / qpstep=4 / vbv_maxrate=62500 / vbv_bufsize=78125 / crf_max=0.0 / nal_hrd=none / filler=0 / ip_ratio=1.40 / aq=1:1.00
Default                                  : Yes
Forced                                   : No

Audio
ID                                       : 2
Format                                   : DTS
Format/Info                              : Digital Theater Systems
Mode                                     : 16
Format settings, Endianness              : Big
Codec ID                                 : A_DTS
Duration                                 : 1h 39mn
Bit rate mode                            : Constant
Bit rate                                 : 1 509 Kbps
Channel(s)                               : 6 channels
Channel positions                        : Front: L C R, Side: L R, LFE
Sampling rate                            : 48.0 KHz
Frame rate                               : 93.750 fps (512 spf)
Bit depth                                : 24 bits
Compression mode                         : Lossy
Stream size                              : 1.04 GiB (11%)
Language                                 : English
Default                                  : Yes
Forced                                   : No

Menu
00:00:00.000                             : en:00:00:00.000
00:07:04.424                             : en:00:07:04.424
00:16:05.965                             : en:00:16:05.965
00:25:32.531                             : en:00:25:32.531
00:32:29.948                             : en:00:32:29.948
00:41:24.482                             : en:00:41:24.482
00:48:44.922                             : en:00:48:44.922
00:56:52.409                             : en:00:56:52.409
01:04:20.857                             : en:01:04:20.857
01:15:30.526                             : en:01:15:30.526
01:22:50.966                             : en:01:22:50.966
01:29:28.363                             : en:01:29:28.363




1 个附件 售价 大小 下载 时间

Sniper.1993.1080p.BluRay.x264.DTS-FGT[btbtt.co].torrent 0 金币 91.64K 5576 次 7月前

#1楼
发帖时间:2017-01-08 09:48:06   |   回复数:6
blue23
超凡入圣№
感谢楼主分享
7月前 #2楼
911degrees
一代宗师
非常感谢,谢谢分享
7月前 #3楼
liyouchai
超凡入圣№
谢谢楼主分享资源
7月前 #4楼
chindian
武林高手
感谢楼主分享
7月前 #5楼
archer009
武林高手
非常经典,期待楼主再传23,谢谢分享
7月前 #6楼
nosafe
武林高手
文件似乎有误啊
7月前 #7楼
游客组