aoloffline
版主

[更 早] [欧美] [爱情] [BD-1080P] [BT下载]午餐时间 Lunch.Hour.1961.1080p.Bluray.X264-7SinS 4.37GB

-->

◎译  名 午餐时间

◎片  名 lunch hour

◎年  代 1961

◎国  家 英国

◎类  别 爱情

◎语  言 英语

◎IMDb评分  6.7/10 from 67 users

◎IMDb链接  http://www.imdb.com/title/tt0242622/

◎BT之家整理 http://www.btbtt.co

◎导  演 詹姆斯·希尔 James Hill

◎主  演 雪莉·安妮·菲尔德 Shirley Anne Field

      罗伯特·斯蒂芬斯 Robert Stephens


◎简  介


  A young designer and a married executive may be about to start an affair. A series of lunch hours play out the relationship.


Video
ID                                       : 1
Format                                   : AVC
Format/Info                              : Advanced Video Codec
Format profile                           : High@L4.1
Format settings, CABAC                   : Yes
Format settings, ReFrames                : 4 frames
Codec ID                                 : V_MPEG4/ISO/AVC
Duration                                 : 1h 3mn
Bit rate                                 : 9 415 Kbps
Width                                    : 1 792 pixels
Height                                   : 1 080 pixels
Display aspect ratio                     : 5:3
Frame rate mode                          : Constant
Frame rate                               : 23.976 (24000/1001) fps
Original frame rate                      : 23.976 (23976/1000) fps
Color space                              : YUV
Chroma subsampling                       : 4:2:0
Bit depth                                : 8 bits
Scan type                                : Progressive
Bits/(Pixel*Frame)                       : 0.203
Stream size                              : 4.08 GiB (93%)
Writing library                          : x264 core 115 r1947 b5a8ad7
Encoding settings                        : cabac=1 / ref=4 / deblock=1:0:0 / analyse=0x3:0x133 / me=umh / subme=7 / psy=1 / psy_rd=1.00:0.00 / mixed_ref=1 / me_range=16 / chroma_me=1 / trellis=1 / 8x8dct=1 / cqm=0 / deadzone=21,11 / fast_pskip=0 / chroma_qp_offset=-2 / threads=12 / sliced_threads=0 / nr=0 / decimate=1 / interlaced=0 / bluray_compat=0 / constrained_intra=0 / bframes=3 / b_pyramid=2 / b_adapt=1 / b_bias=0 / direct=1 / weightb=1 / open_gop=0 / weightp=2 / keyint=250 / keyint_min=23 / scenecut=40 / intra_refresh=0 / rc_lookahead=40 / rc=2pass / mbtree=1 / bitrate=9415 / ratetol=1.0 / qcomp=0.60 / qpmin=0 / qpmax=69 / qpstep=4 / cplxblur=20.0 / qblur=0.5 / ip_ratio=1.40 / aq=1:1.00
Language                                 : English
Default                                  : Yes
Forced                                   : No

Audio
ID                                       : 2
Format                                   : AC-3
Format/Info                              : Audio Coding 3
Mode extension                           : CM (complete main)
Format settings, Endianness              : Big
Codec ID                                 : A_AC3
Duration                                 : 1h 3mn
Bit rate mode                            : Constant
Bit rate                                 : 448 Kbps
Channel(s)                               : 2 channels
Channel positions                        : Front: L R
Sampling rate                            : 48.0 KHz
Frame rate                               : 31.250 fps (1536 spf)
Compression mode                         : Lossy
Stream size                              : 203 MiB (5%)
Language                                 : English
Default                                  : Yes
Forced                                   : No





1 个附件 售价 大小 下载 时间

Lunch.Hour.1961.1080p.Bluray.X264-7SinS[btbtt.co].torrent 0 金币 87.88K 712 次 8月前

#1楼
发帖时间:2017-01-08 09:38:26   |   回复数:3
blue23
超凡入圣№
感谢楼主分享
8月前 #2楼
911degrees
一代宗师
非常感谢,谢谢分享
8月前 #3楼
liyouchai
超凡入圣№
谢谢楼主分享资源
8月前 #4楼
游客组