aoloffline
版主

[2011] [欧美] [剧情] [BD-1080P] [BT下载]致胜一击/致命一击 Knockout.aka.Born.to.Fight.2011.1080p.Bluray.X264-7SinS 6.5GB

-->

◎译  名 致胜一击/致命一击

◎片  名 Knockout

◎年  代 2011

◎国  家 美国

◎类  别 家庭

◎语  言 英语

◎IMDb评分  5.0/10 from 2,090 users

◎IMDb链接  http://www.imdb.com/title/tt1691453/

◎豆瓣评分 5.6/10 from 174 users

◎豆瓣链接 https://movie.douban.com/subject/6307750/

◎BT之家整理 http://www.btbtt.co

◎片  长 95分钟

◎导  演 Anne Wheeler

◎主  演 Steve Austin

      Daniel Magder

      Jaren Brandt Bartlett


◎简  介


  Dan Barnes是前职业拳击手,因为对于暴力的厌倦而退休。现在,他是学校看门人,并帮助学校一个总被欺负的学生。


Video
ID                                       : 1
Format                                   : AVC
Format/Info                              : Advanced Video Codec
Format profile                           : High@L4.1
Format settings, CABAC                   : Yes
Format settings, ReFrames                : 4 frames
Muxing mode                              : Header stripping
Codec ID                                 : V_MPEG4/ISO/AVC
Duration                                 : 1h 35mn
Bit rate                                 : 8 353 Kbps
Width                                    : 1 920 pixels
Height                                   : 1 080 pixels
Display aspect ratio                     : 16:9
Frame rate mode                          : Constant
Frame rate                               : 23.976 (23976/1000) fps
Color space                              : YUV
Chroma subsampling                       : 4:2:0
Bit depth                                : 8 bits
Scan type                                : Progressive
Bits/(Pixel*Frame)                       : 0.168
Stream size                              : 5.42 GiB (83%)
Writing library                          : x264 core 115 r1947 b5a8ad7
Encoding settings                        : cabac=1 / ref=4 / deblock=1:0:0 / analyse=0x3:0x133 / me=umh / subme=7 / psy=1 / psy_rd=1.00:0.00 / mixed_ref=1 / me_range=16 / chroma_me=1 / trellis=1 / 8x8dct=1 / cqm=0 / deadzone=21,11 / fast_pskip=0 / chroma_qp_offset=-2 / threads=12 / sliced_threads=0 / nr=0 / decimate=1 / interlaced=0 / bluray_compat=0 / constrained_intra=0 / bframes=3 / b_pyramid=2 / b_adapt=1 / b_bias=0 / direct=1 / weightb=1 / open_gop=0 / weightp=2 / keyint=250 / keyint_min=23 / scenecut=40 / intra_refresh=0 / rc_lookahead=40 / rc=2pass / mbtree=1 / bitrate=8353 / ratetol=1.0 / qcomp=0.60 / qpmin=0 / qpmax=69 / qpstep=4 / cplxblur=20.0 / qblur=0.5 / ip_ratio=1.40 / aq=1:1.00
Language                                 : English
Default                                  : Yes
Forced                                   : No

Audio
ID                                       : 2
Format                                   : DTS
Format/Info                              : Digital Theater Systems
Mode                                     : 16
Format settings, Endianness              : Big
Muxing mode                              : Header stripping
Codec ID                                 : A_DTS
Duration                                 : 1h 35mn
Bit rate mode                            : Constant
Bit rate                                 : 1 509 Kbps
Channel(s)                               : 6 channels
Channel positions                        : Front: L C R, Side: L R, LFE
Sampling rate                            : 48.0 KHz
Frame rate                               : 93.750 fps (512 spf)
Bit depth                                : 24 bits
Compression mode                         : Lossy
Stream size                              : 1.00 GiB (15%)
Default                                  : Yes
Forced                                   : No





1 个附件 售价 大小 下载 时间

Knockout.aka.Born.to.Fight.2011.1080p.Bluray.X264-7SinS[btbtt.co].torrent 0 金币 66.11K 690 次 8月前

#1楼
发帖时间:2017-01-08 09:34:27   |   回复数:4
blue23
超凡入圣№
感谢楼主分享
8月前 #2楼
911degrees
一代宗师
非常感谢,谢谢分享
8月前 #3楼
liyouchai
超凡入圣№
谢谢楼主分享资源
8月前 #4楼
yangbo83222179
一代宗师
谢谢楼主分享,支持一下
8月前 #5楼
游客组