aoloffline
版主

[更 早] [欧美] [喜剧] [BD-1080P] [BT下载]乔安娜 Joanna.1968.1080p.Bluray.X264-7SinS 7.65GB

-->

◎译  名 乔安娜

◎片  名 Joanna

◎年  代 1968

◎国  家 英国

◎类  别 喜剧/剧情/歌舞

◎语  言 英语

◎上映日期 1968-11-24

◎IMDb评分  5.9/10 from 265 users

◎IMDb链接  http://www.imdb.com/title/tt0063157/

◎豆瓣评分 6.5/10 from 29 users

◎豆瓣链接 https://movie.douban.com/subject/3155267/

◎BT之家整理 http://www.btbtt.co

◎片  长 108 分钟

◎导  演 Michael Sarne

◎主  演 吉妮薇芙·怀特 Geneviève Waïte

      Christian Doermer

      Calvin Lockhart


◎简  介


  以女孩阿尔菲为原型,该片讲述的是17岁的乔安娜的故事,她个性、时髦,决心在伦敦的花花世界里做一个感受新生活的艺术生。吉妮维夫·怀特倾情出演了该片。片中有激情的游戏、也有多彩的黄粱一梦,还有跟温文尔雅的皮特·桑德森(唐纳尔德·萨瑟兰德精彩演绎)突发奇想的摩洛哥之旅。而当乔安娜爱上戈登之后,也是在塞拉利昂,她的生活才真正变得完整。


◎获奖情况


  第21届戛纳电影节  (1968)

  主竞赛单元 金棕榈奖(提名) Michael Sarne


Video
ID                                       : 1
Format                                   : AVC
Format/Info                              : Advanced Video Codec
Format profile                           : High@L4.1
Format settings, CABAC                   : Yes
Format settings, ReFrames                : 5 frames
Codec ID                                 : V_MPEG4/ISO/AVC
Duration                                 : 1h 53mn
Bit rate                                 : 9 192 Kbps
Width                                    : 1 920 pixels
Height                                   : 816 pixels
Display aspect ratio                     : 2.35:1
Frame rate mode                          : Constant
Frame rate                               : 23.976 (24000/1001) fps
Original frame rate                      : 23.976 (23976/1000) fps
Color space                              : YUV
Chroma subsampling                       : 4:2:0
Bit depth                                : 8 bits
Scan type                                : Progressive
Bits/(Pixel*Frame)                       : 0.245
Stream size                              : 7.14 GiB (93%)
Writing library                          : x264 core 115 r1947 b5a8ad7
Encoding settings                        : cabac=1 / ref=5 / deblock=1:0:0 / analyse=0x3:0x133 / me=umh / subme=7 / psy=1 / psy_rd=1.00:0.00 / mixed_ref=1 / me_range=16 / chroma_me=1 / trellis=1 / 8x8dct=1 / cqm=0 / deadzone=21,11 / fast_pskip=0 / chroma_qp_offset=-2 / threads=12 / sliced_threads=0 / nr=0 / decimate=1 / interlaced=0 / bluray_compat=0 / constrained_intra=0 / bframes=3 / b_pyramid=2 / b_adapt=1 / b_bias=0 / direct=1 / weightb=1 / open_gop=0 / weightp=2 / keyint=250 / keyint_min=23 / scenecut=40 / intra_refresh=0 / rc_lookahead=40 / rc=2pass / mbtree=1 / bitrate=9192 / ratetol=1.0 / qcomp=0.60 / qpmin=0 / qpmax=69 / qpstep=4 / cplxblur=20.0 / qblur=0.5 / ip_ratio=1.40 / aq=1:1.00
Language                                 : English
Default                                  : Yes
Forced                                   : No

Audio
ID                                       : 2
Format                                   : AC-3
Format/Info                              : Audio Coding 3
Mode extension                           : CM (complete main)
Format settings, Endianness              : Big
Codec ID                                 : A_AC3
Duration                                 : 1h 53mn
Bit rate mode                            : Constant
Bit rate                                 : 448 Kbps
Channel(s)                               : 2 channels
Channel positions                        : Front: L R
Sampling rate                            : 48.0 KHz
Frame rate                               : 31.250 fps (1536 spf)
Compression mode                         : Lossy
Stream size                              : 364 MiB (5%)
Language                                 : English
Default                                  : Yes
Forced                                   : No






1 个附件 售价 大小 下载 时间

Joanna.1968.1080p.Bluray.X264-7SinS[btbtt.co].torrent 0 金币 77.00K 413 次 1月前

#1楼
发帖时间:2017-01-08 09:32:00   |   回复数:3
blue23
超凡入圣№
感谢楼主分享
1月前 #2楼
911degrees
一代宗师
非常感谢,谢谢分享
1月前 #3楼
liyouchai
一代宗师
谢谢楼主分享资源
1月前 #4楼
游客组