aoloffline
版主

[更 早] [欧美] [恐怖] [BD-1080P] [BT下载]垂死挣扎/不死的灵魂 Intermedio.2005.1080p.BluRay.x264.DTS-FGT 5.69GB

-->

◎译  名 垂死挣扎/不死的灵魂

◎片  名 Intermedio

◎年  代 2005

◎国  家 美国

◎类  别 恐怖/惊悚

◎语  言 英语

◎上映日期 2005-03-29

◎IMDb评分  2.5/10 from 1,152 users

◎IMDb链接  http://www.imdb.com/title/tt0414161/

◎BT之家整理 http://www.btbtt.co

◎片  长 82 分钟

◎导  演 Andrew Lauer

◎主  演 Edward Furlong

      Steve Railsback


◎简  介


  几个朋友被困于墨西哥边境的隧道内,很快他们会成为里面作祟鬼魂的猎物。


Video
ID                                       : 1
Format                                   : AVC
Format/Info                              : Advanced Video Codec
Format profile                           : High@L4.1
Format settings, CABAC                   : Yes
Format settings, ReFrames                : 4 frames
Codec ID                                 : V_MPEG4/ISO/AVC
Duration                                 : 1h 25mn
Bit rate                                 : 7 856 Kbps
Width                                    : 1 920 pixels
Height                                   : 1 080 pixels
Display aspect ratio                     : 16:9
Original display aspect ratio            : 16:9
Frame rate mode                          : Constant
Frame rate                               : 23.976 (24000/1001) fps
Color space                              : YUV
Chroma subsampling                       : 4:2:0
Bit depth                                : 8 bits
Scan type                                : Progressive
Bits/(Pixel*Frame)                       : 0.158
Stream size                              : 4.67 GiB (82%)
Writing library                          : x264 core 142 r2453 ea0ca51
Encoding settings                        : cabac=1 / ref=4 / deblock=1:-1:-1 / analyse=0x3:0x133 / me=umh / subme=7 / psy=1 / psy_rd=1.00:0.15 / mixed_ref=1 / me_range=16 / chroma_me=1 / trellis=1 / 8x8dct=1 / cqm=0 / deadzone=21,11 / fast_pskip=0 / chroma_qp_offset=-3 / threads=12 / lookahead_threads=2 / sliced_threads=0 / nr=0 / decimate=1 / interlaced=0 / bluray_compat=0 / constrained_intra=0 / bframes=3 / b_pyramid=2 / b_adapt=1 / b_bias=0 / direct=1 / weightb=1 / open_gop=0 / weightp=2 / keyint=240 / keyint_min=23 / scenecut=40 / intra_refresh=0 / rc_lookahead=40 / rc=crf / mbtree=1 / crf=20.0 / qcomp=0.60 / qpmin=10 / qpmax=51 / qpstep=4 / vbv_maxrate=62500 / vbv_bufsize=78125 / crf_max=0.0 / nal_hrd=none / filler=0 / ip_ratio=1.40 / aq=1:1.00
Default                                  : Yes
Forced                                   : No

Audio
ID                                       : 2
Format                                   : DTS
Format/Info                              : Digital Theater Systems
Mode                                     : 16
Format settings, Endianness              : Big
Codec ID                                 : A_DTS
Duration                                 : 1h 25mn
Bit rate mode                            : Constant
Bit rate                                 : 1 509 Kbps
Channel(s)                               : 6 channels
Channel positions                        : Front: L C R, Side: L R, LFE
Sampling rate                            : 48.0 KHz
Frame rate                               : 93.750 fps (512 spf)
Bit depth                                : 24 bits
Compression mode                         : Lossy
Stream size                              : 920 MiB (16%)
Language                                 : English
Default                                  : No
Forced                                   : No




1 个附件 售价 大小 下载 时间

Intermedio.2005.1080p.BluRay.x264.DTS-FGT[btbtt.co].torrent 0 金币 57.45K 729 次 7月前

#1楼
发帖时间:2017-01-08 09:30:25   |   回复数:3
blue23
超凡入圣№
感谢楼主分享
7月前 #2楼
911degrees
一代宗师
非常感谢,谢谢分享
7月前 #3楼
liyouchai
超凡入圣№
谢谢楼主分享资源
7月前 #4楼
游客组