aoloffline
版主

[2008] [欧美] [惊悚] [BD-1080P] [BT下载]伴雨行/幻雨追缉 I.Come.with.The.Rain.2008.1080p.Bluray.X264-7SinS 7.64GB

-->

◎译  名 伴雨行/幻雨追缉/我随雨来

◎片  名 I Come with the Rain

◎年  代 2009

◎国  家 法国/香港/爱尔兰

◎类  别 惊悚

◎语  言 英语

◎上映日期 2009-05-27

◎IMDb评分  5.5/10 from 2,584 users

◎IMDb链接  http://www.imdb.com/title/tt1024744/

◎豆瓣评分 5.3/10 from 2,032 users

◎豆瓣链接 https://movie.douban.com/subject/2084534/

◎BT之家整理 http://www.btbtt.co

◎片  长 114 分钟

◎导  演 陈英雄

◎主  演 乔什·哈奈特 Josh Hartnett

      木村拓哉

      李秉宪

      陈女燕溪

      余文乐

      伊莱亚斯·科泰斯 Elias Koteas

      欧塞维奥·庞塞拉 Eusebio Poncela

      谷祖琳

      李灿森

      林迪安


◎简  介


  洛杉矶警察克莱因(乔什•哈奈特 Josh Hartnett 饰)在办案中惨遭羞辱,罪犯嗜血如命,喜欢肢解活人。克莱因身受重伤,仍侥幸活命,但心底留下阴影,被迫革职。3年后,一位中国富商委托克莱因帮忙寻找失踪儿子师涛(木村拓哉 Takuya Kimura 饰),他来到香港,接待他的是好友孟子(余文乐 Shawn Yue 饰),后者亦是警察。在警局,克莱因与师涛擦肩而过。随后,发生荒野命案,孟子怀疑此事为流浪汉(李灿森 饰)所为,两人急忙赶到现场。与此同时,黑帮头目苏东坡(李秉宪 Byung-hun Lee 饰)的情人莉莉(陈女燕溪 Tran Nu Yên-Khê 饰)被狂徒掳走,后者开车逃逸,也来到了荒野处,但被击毙。调查中,克莱因逐渐发现了莉莉、李秉宪、师涛之间的微妙关系……

  本片为越南导演陈英雄息影7年的回归之作,入选62届戛纳电影节竞赛单元。



Video
ID                                       : 1
Format                                   : AVC
Format/Info                              : Advanced Video Codec
Format profile                           : High@L4.1
Format settings, CABAC                   : Yes
Format settings, ReFrames                : 5 frames
Codec ID                                 : V_MPEG4/ISO/AVC
Duration                                 : 1h 54mn
Bit rate                                 : 8 050 Kbps
Width                                    : 1 920 pixels
Height                                   : 816 pixels
Display aspect ratio                     : 2.35:1
Frame rate mode                          : Constant
Frame rate                               : 23.976 (24000/1001) fps
Original frame rate                      : 23.976 (23976/1000) fps
Color space                              : YUV
Chroma subsampling                       : 4:2:0
Bit depth                                : 8 bits
Scan type                                : Progressive
Bits/(Pixel*Frame)                       : 0.214
Stream size                              : 6.28 GiB (82%)
Writing library                          : x264 core 115 r1947 b5a8ad7
Encoding settings                        : cabac=1 / ref=5 / deblock=1:0:0 / analyse=0x3:0x133 / me=umh / subme=7 / psy=1 / psy_rd=1.00:0.00 / mixed_ref=1 / me_range=16 / chroma_me=1 / trellis=1 / 8x8dct=1 / cqm=0 / deadzone=21,11 / fast_pskip=0 / chroma_qp_offset=-2 / threads=12 / sliced_threads=0 / nr=0 / decimate=1 / interlaced=0 / bluray_compat=0 / constrained_intra=0 / bframes=3 / b_pyramid=2 / b_adapt=1 / b_bias=0 / direct=1 / weightb=1 / open_gop=0 / weightp=2 / keyint=250 / keyint_min=23 / scenecut=40 / intra_refresh=0 / rc_lookahead=40 / rc=2pass / mbtree=1 / bitrate=8050 / ratetol=1.0 / qcomp=0.60 / qpmin=0 / qpmax=69 / qpstep=4 / cplxblur=20.0 / qblur=0.5 / ip_ratio=1.40 / aq=1:1.00
Language                                 : English
Default                                  : Yes
Forced                                   : No

Audio
ID                                       : 2
Format                                   : DTS
Format/Info                              : Digital Theater Systems
Mode                                     : 16
Format settings, Endianness              : Big
Codec ID                                 : A_DTS
Duration                                 : 1h 54mn
Bit rate mode                            : Constant
Bit rate                                 : 1 509 Kbps
Channel(s)                               : 6 channels
Channel positions                        : Front: L C R, Side: L R, LFE
Sampling rate                            : 48.0 KHz
Frame rate                               : 93.750 fps (512 spf)
Bit depth                                : 24 bits
Compression mode                         : Lossy
Stream size                              : 1.21 GiB (16%)
Language                                 : English
Default                                  : Yes
Forced                                   : No




1 个附件 售价 大小 下载 时间

I.Come.with.The.Rain.2008.1080p.Bluray.X264-7SinS[btbtt.co].torrent 0 金币 76.95K 1317 次 9月前

#1楼
发帖时间:2017-01-08 09:27:40   |   回复数:3
blue23
超凡入圣№
感谢楼主分享
9月前 #2楼
911degrees
一代宗师
非常感谢,谢谢分享
9月前 #3楼
liyouchai
超凡入圣№
谢谢楼主分享资源
9月前 #4楼
游客组