aoloffline
版主

[2009] [欧美] [喜剧] [BD-1080P] [BT下载]蒸发的摩根夫妇 Did.You.Hear.About.The.Morgans.2009.1080p.BluRay.x264-METiS 7.9GB

-->

◎译  名 蒸发的摩根夫妇/名牌冤家(台)/走佬决胜婚(港)/蒸发的摩根一家/你听说摩根一家了吗?/摩根夫妇去哪儿了?/消失的摩根夫妇

◎片  名 Did You Hear About the Morgans?

◎年  代 2009

◎国  家 美国

◎类  别 喜剧/爱情/犯罪

◎语  言 英语

◎上映日期 2009-12-18(美国)

◎IMDb评分  4.7/10 from 30,216 users

◎IMDb链接  http://www.imdb.com/title/tt1314228/

◎豆瓣评分 6.1/10 from 7,939 users

◎豆瓣链接 https://movie.douban.com/subject/3310482/

◎BT之家整理 http://www.btbtt.co

◎片  长 103分钟

◎导  演 马克·劳伦斯 Marc Lawrence

◎主  演 莎拉·杰茜卡·帕克 Sarah Jessica Parker

      休·格兰特 Hugh Grant

      伊丽莎白·莫斯 Elisabeth Moss

      金肖 Kim Shaw

      山姆·艾里奥特 Sam Elliott

      玛丽·斯汀伯根 Mary Steenburgen

      迈克尔·凯利 Michael Kelly


◎简  介


  居住在纽约的摩根夫妇生活优渥,丈夫保罗(休·格兰特 Hugh Grant 饰)在司法界声名远播,妻子梅莉(莎拉·杰茜卡·帕克 Sarah Jessica Parker 饰)则是房地产界的精英女强人。事业上的卓越成就无法弥合夫妇俩日渐凸现的情感矛盾,保罗的外遇更致使两人长期分居,婚姻濒临崩溃。在分居后的第三个月,保罗主动约出妻子,希望与之重归于好。晚餐过后,摩根夫妇在瓢泼大雨中偶然目睹一桩杀人案,他们清楚看到凶手(麦克·凯利 Michael Kelly 饰)的长相,而自己的容貌也被凶手尽收眼底。

  摩根夫妇此时恐怕首次要为自己的知名度而懊恼,因为凶手文森特毫不费力知道了他们的姓名。针对摩根夫妇的灭口追杀自此接连上演,他们只有抛弃一切,选择人间蒸发……


◎获奖情况


  第30届金酸莓奖  (2010)

  最差女主角(提名) 莎拉·杰茜卡·帕克


Video
ID                                       : 3
Format                                   : AVC
Format/Info                              : Advanced Video Codec
Format profile                           : High@L4.1
Format settings, CABAC                   : Yes
Format settings, ReFrames                : 5 frames
Codec ID                                 : V_MPEG4/ISO/AVC
Duration                                 : 1h 43mn
Bit rate                                 : 9 483 Kbps
Width                                    : 1 920 pixels
Height                                   : 816 pixels
Display aspect ratio                     : 2.35:1
Frame rate mode                          : Constant
Frame rate                               : 23.976 fps
Color space                              : YUV
Chroma subsampling                       : 4:2:0
Bit depth                                : 8 bits
Scan type                                : Progressive
Bits/(Pixel*Frame)                       : 0.252
Stream size                              : 6.70 GiB (84%)
Writing library                          : x264 core 88 r1471 1144615
Encoding settings                        : cabac=1 / ref=5 / deblock=1:0:0 / analyse=0x3:0x133 / me=umh / subme=7 / psy=1 / psy_rd=1.00:0.00 / mixed_ref=1 / me_range=16 / chroma_me=1 / trellis=1 / 8x8dct=1 / cqm=0 / deadzone=21,11 / fast_pskip=1 / chroma_qp_offset=-2 / threads=6 / sliced_threads=0 / nr=0 / decimate=1 / mbaff=0 / constrained_intra=0 / bframes=3 / b_pyramid=2 / b_adapt=2 / b_bias=0 / direct=3 / wpredb=1 / wpredp=2 / keyint=250 / keyint_min=25 / scenecut=40 / intra_refresh=0 / rc=2pass / mbtree=0 / bitrate=9483 / ratetol=1.0 / qcomp=0.60 / qpmin=10 / qpmax=51 / qpstep=4 / cplxblur=20.0 / qblur=0.5 / ip_ratio=1.40 / pb_ratio=1.30 / aq=1:1.00
Language                                 : English
Default                                  : No
Forced                                   : No

Audio
ID                                       : 2
Format                                   : DTS
Format/Info                              : Digital Theater Systems
Mode                                     : 16
Format settings, Endianness              : Big
Codec ID                                 : A_DTS
Duration                                 : 1h 43mn
Bit rate mode                            : Constant
Bit rate                                 : 1 509 Kbps
Channel(s)                               : 6 channels
Channel positions                        : Front: L C R, Side: L R, LFE
Sampling rate                            : 48.0 KHz
Frame rate                               : 93.750 fps (512 spf)
Bit depth                                : 24 bits
Compression mode                         : Lossy
Stream size                              : 1.09 GiB (14%)
Title                                    : DTS 1509 Kbps
Language                                 : English
Default                                  : Yes
Forced                                   : No

Text
ID                                       : 1
Format                                   : UTF-8
Codec ID                                 : S_TEXT/UTF8
Codec ID/Info                            : UTF-8 Plain Text
Language                                 : English
Default                                  : No
Forced                                   : No





1 个附件 售价 大小 下载 时间

Did.You.Hear.About.The.Morgans.2009.1080p.BluRay.x264-METiS[btbtt.co].torrent 0 金币 80.01K 886 次 3月前

#1楼
发帖时间:2017-01-08 09:16:00   |   回复数:3
blue23
超凡入圣№
感谢楼主分享
3月前 #2楼
911degrees
一代宗师
非常感谢,谢谢分享
3月前 #3楼
liyouchai
超凡入圣№
谢谢楼主分享资源
3月前 #4楼
游客组