aoloffline
版主

[2017] [欧美] [剧情] [WEB-1080P] [BT下载]Coin.Heist.2017.1080p.NF.WEBRip.DD5.1.x264-SB 7.08GB

-->

◎译  名 

◎片  名 Coin Heist

◎年  代 2017

◎国  家 美国

◎语  言 英语

◎上映日期 2017-01-06(美国)

◎IMDb评分  6.0/10 from 65 users

◎IMDb链接  http://www.imdb.com/title/tt5740806/

◎BT之家整理 http://www.btbtt.co  

◎导  演 艾米丽·哈金斯 Emily Hagins

◎主  演 萨莎·皮特丝 Sasha Pieterse

      亚历克斯·撒克逊 Alex Saxon

      亚利希斯·扎尔 Alexis G. Zall

      布兰奇·贝克 Blanche Baker

      David W. Thompson

      迈克尔·西里尔·克赖顿 Michael Cyril Creighton

      Craig Walker

      Shoba Narayan

      Jay Walker

      Elijah Boothe

      Justin Mark

      Connor Ratliff

      Slate Holmgren

      Zach Broussard

      Alex Maizus


◎简  介


  United by dire circumstances, four unlikely allies from a Philadelphia prep school - the hacker, the slacker, the athlete, and the perfect student - band together to attempt the impossible: steal from the U.S. Mint.


Video
ID                                       : 1
Format                                   : AVC
Format/Info                              : Advanced Video Codec
Format profile                           : High@L4.1
Format settings, CABAC                   : Yes
Format settings, ReFrames                : 4 frames
Codec ID                                 : V_MPEG4/ISO/AVC
Duration                                 : 1h 37mn
Bit rate                                 : 9 534 Kbps
Width                                    : 1 920 pixels
Height                                   : 1 036 pixels
Display aspect ratio                     : 1.85:1
Frame rate mode                          : Constant
Frame rate                               : 23.976 (24000/1001) fps
Color space                              : YUV
Chroma subsampling                       : 4:2:0
Bit depth                                : 8 bits
Scan type                                : Progressive
Bits/(Pixel*Frame)                       : 0.200
Stream size                              : 6.50 GiB (92%)
Writing library                          : x264 core 148 r2638 7599210
Encoding settings                        : cabac=1 / ref=4 / deblock=1:-3:-3 / analyse=0x3:0x133 / me=umh / subme=9 / psy=1 / psy_rd=1.00:0.15 / mixed_ref=1 / me_range=32 / chroma_me=1 / trellis=2 / 8x8dct=1 / cqm=0 / deadzone=21,11 / fast_pskip=1 / chroma_qp_offset=-3 / threads=18 / lookahead_threads=1 / sliced_threads=0 / slices=4 / nr=0 / decimate=1 / interlaced=0 / bluray_compat=0 / constrained_intra=0 / bframes=3 / b_pyramid=2 / b_adapt=2 / b_bias=0 / direct=3 / weightb=1 / open_gop=0 / weightp=2 / keyint=240 / keyint_min=23 / scenecut=40 / intra_refresh=0 / rc_lookahead=60 / rc=crf / mbtree=1 / crf=17.0 / qcomp=0.60 / qpmin=0 / qpmax=69 / qpstep=4 / ip_ratio=1.40 / aq=3:0.85
Language                                 : English
Default                                  : Yes
Forced                                   : No
Color range                              : Limited
Matrix coefficients                      : BT.709

Audio
ID                                       : 2
Format                                   : AC-3
Format/Info                              : Audio Coding 3
Mode extension                           : CM (complete main)
Format settings, Endianness              : Big
Codec ID                                 : A_AC3
Duration                                 : 1h 37mn
Bit rate mode                            : Constant
Bit rate                                 : 640 Kbps
Channel(s)                               : 6 channels
Channel positions                        : Front: L C R, Side: L R, LFE
Sampling rate                            : 48.0 KHz
Frame rate                               : 31.250 fps (1536 spf)
Compression mode                         : Lossy
Stream size                              : 447 MiB (6%)
Language                                 : English
Default                                  : Yes
Forced                                   : No

Text
ID                                       : 3
Format                                   : UTF-8
Codec ID                                 : S_TEXT/UTF8
Codec ID/Info                            : UTF-8 Plain Text
Language                                 : English
Default                                  : Yes
Forced                                   : No





1 个附件 售价 大小 下载 时间

Coin.Heist.201.1080p.NF.WEBRip.DD5.1.x264-SB[btbtt.co].torrent 0 金币 71.46K 1166 次 5月前

#1楼
发帖时间:2017-01-07 22:24:45   |   回复数:4
blue23
超凡入圣№
感谢楼主分享
5月前 #2楼
liyouchai
超凡入圣№
谢谢楼主分享资源
5月前 #3楼
911degrees
一代宗师
非常感谢,谢谢分享
5月前 #4楼
albb2188
一派掌门
感谢楼主提供分享影片资源!
5月前 #5楼
游客组