aoloffline
版主

[2016] [欧美] [动画] [蓝光原盘] [BT下载]Howard.Lovecraft.And.the.F.K.2016.1080p.BluRay.AVC.DTS-HD.MA.5.1-FGT 22GB

-->

◎译  名 

◎片  名 Howard Lovecraft & the Frozen Kingdom

◎年  代 2016

◎国  家 加拿大 Canada

◎类  别 动画

◎语  言 英语

◎上映日期 2016

◎IMDb评分  5.2/10 from 89 users

◎IMDb链接  http://www.imdb.com/title/tt4768656/

◎BT之家整理 http://www.btbtt.co  

◎导  演 Sean Patrick O'Reilly


◎简  介


  Young Howard Lovecraft begins his adventure by going to the Butler Sanitarium with his mother to visit his father Winfield Lovecraft| a patient there who has beendriven mad by something he's done. Howard's father goes into a spasm of paranoia and fear| begging his son to destroy a book that he should have never written. Theboy doesn't scream during the incident| but does go home with a small gift - a paper star made by his father. Once home| Howard's curiosity is too much and he beginsto read his father's book. He's drawn into a dark| cold world of magic and deceit. The book tells of a place - R'yleh - a "kingdom described as an unholy marriage offairy tales and nightmares." Unwittingly| the boy reads a few words written in the book in a strange language - and is sucked through a whole in the fabric of theuniverse. He meets a Deep One| Thu Thu Hmong| who initially tries to eat Howard but comes around after the boy saves the creature's life. Howard| who fails topronounce the ...


Video
ID                                       : 1
Format                                   : AVC
Format/Info                              : Advanced Video Codec
Format profile                           : High@L4.1
Format settings, CABAC                   : Yes
Format settings, ReFrames                : 4 frames
Format settings, GOP                     : M=3, N=12
Codec ID                                 : V_MPEG4/ISO/AVC
Duration                                 : 1h 23mn
Bit rate mode                            : Variable
Maximum bit rate                         : 35.0 Mbps
Width                                    : 1 920 pixels
Height                                   : 1 080 pixels
Display aspect ratio                     : 16:9
Frame rate mode                          : Constant
Frame rate                               : 23.976 (24000/1001) fps
Color space                              : YUV
Chroma subsampling                       : 4:2:0
Bit depth                                : 8 bits
Scan type                                : Progressive
Title                                    : Howard.Lovecraft.And.the.Frozen.Kingdom.2016.1080p.BluRay.REMUX.AVC.DTS-HD.MA.5.1-FGT
Language                                 : English
Default                                  : No
Forced                                   : No

Audio #1
ID                                       : 2
Format                                   : DTS
Format/Info                              : Digital Theater Systems
Format profile                           : MA / Core
Mode                                     : 16
Format settings, Endianness              : Big
Codec ID                                 : A_DTS
Duration                                 : 1h 23mn
Bit rate mode                            : Variable / Constant
Bit rate                                 : Unknown / 1 509 Kbps
Channel(s)                               : 6 channels
Channel positions                        : Front: L C R, Side: L R, LFE
Sampling rate                            : 48.0 KHz
Frame rate                               : 93.750 fps (512 spf)
Bit depth                                : 24 bits
Compression mode                         : Lossless / Lossy
Title                                    : Howard.Lovecraft.And.the.Frozen.Kingdom.2016.1080p.BluRay.REMUX.AVC.DTS-HD.MA.5.1-FGT
Language                                 : English
Default                                  : Yes
Forced                                   : No

Audio #2
ID                                       : 3
Format                                   : DTS
Format/Info                              : Digital Theater Systems
Mode                                     : 16
Format settings, Endianness              : Big
Codec ID                                 : A_DTS
Duration                                 : 1h 23mn
Bit rate mode                            : Constant
Bit rate                                 : 1 509 Kbps
Channel(s)                               : 6 channels
Channel positions                        : Front: L C R, Side: L R, LFE
Sampling rate                            : 48.0 KHz
Frame rate                               : 93.750 fps (512 spf)
Bit depth                                : 24 bits
Compression mode                         : Lossy
Stream size                              : 902 MiB (4%)
Title                                    : Howard.Lovecraft.And.the.Frozen.Kingdom.2016.1080p.BluRay.REMUX.AVC.DTS-HD.MA.5.1-FGT
Language                                 : English
Default                                  : No
Forced                                   : No

Audio #3
ID                                       : 4
Format                                   : DTS
Format/Info                              : Digital Theater Systems
Format profile                           : MA / Core
Mode                                     : 16
Format settings, Endianness              : Big
Codec ID                                 : A_DTS
Duration                                 : 1h 23mn
Bit rate mode                            : Variable / Constant
Bit rate                                 : Unknown / 1 509 Kbps
Channel(s)                               : 2 channels
Channel positions                        : Front: L R
Sampling rate                            : 48.0 KHz
Frame rate                               : 93.750 fps (512 spf)
Bit depth                                : 24 bits
Compression mode                         : Lossless / Lossy
Title                                    : Howard.Lovecraft.And.the.Frozen.Kingdom.2016.1080p.BluRay.REMUX.AVC.DTS-HD.MA.5.1-FGT
Language                                 : English
Default                                  : No
Forced                                   : No

Audio #4
ID                                       : 5
Format                                   : DTS
Format/Info                              : Digital Theater Systems
Mode                                     : 16
Format settings, Endianness              : Big
Codec ID                                 : A_DTS
Duration                                 : 1h 23mn
Bit rate mode                            : Constant
Bit rate                                 : 1 509 Kbps
Channel(s)                               : 2 channels
Channel positions                        : Front: L R
Sampling rate                            : 48.0 KHz
Frame rate                               : 93.750 fps (512 spf)
Bit depth                                : 24 bits
Compression mode                         : Lossy
Stream size                              : 902 MiB (4%)
Title                                    : Howard.Lovecraft.And.the.Frozen.Kingdom.2016.1080p.BluRay.REMUX.AVC.DTS-HD.MA.5.1-FGT
Language                                 : English
Default                                  : No
Forced                                   : No

Text
ID                                       : 6
Format                                   : PGS
Muxing mode                              : zlib
Codec ID                                 : S_HDMV/PGS
Codec ID/Info                            : Picture based subtitle format used on BDs/HD-DVDs
Title                                    : English-PGS
Language                                 : English
Default                                  : No
Forced                                   : No

Menu
00:00:00.000                             : en:Chapter 01
00:06:30.139                             : en:Chapter 02
00:12:21.031                             : en:Chapter 03
00:19:36.925                             : en:Chapter 04
00:29:23.428                             : en:Chapter 05
00:38:36.981                             : en:Chapter 06
00:43:21.724                             : en:Chapter 07
00:45:54.209                             : en:Chapter 08
00:52:46.496                             : en:Chapter 09
01:00:47.310                             : en:Chapter 10
01:10:07.912                             : en:Chapter 11
01:15:32.194                             : en:Chapter 12






1 个附件 售价 大小 下载 时间

Howard.Lovecraft.And.the.Frozen.Kingdom.2016.1080p.BluRay.REMUX.AVC.DTS-HD.MA.5.1-FGT[btbtt.co].torrent 0 金币 51.62K 680 次 8月前

#1楼
发帖时间:2017-01-07 21:42:45   |   回复数:4
blue23
超凡入圣№
感谢楼主分享
8月前 #2楼
liyouchai
超凡入圣№
谢谢楼主分享资源
8月前 #3楼
911degrees
一代宗师
非常感谢,谢谢分享
8月前 #4楼
wrcgww
一派掌门
感谢楼主分享
8月前 #5楼
游客组