小Q呆
版主

[2016] [欧美] [惊悚] [BD-720P] [BT下载]一起入魔 Lets.Be.Evil.2016.720p.BluRay.DTS.x264-HDS 3.44GB

-->

◎译  名 一起入魔

◎片  名 Let's Be Evil

◎年  代 2016

◎国  家 英国

◎类  别 惊悚

◎语  言 英语

◎上映日期 2016-8-5(美国)

◎IMDb评分  6.4/10 from 3,431 users

◎IMDb链接  http://www.imdb.com/title/tt3655682/

◎BT之家整理 http://www.btbtt.co

◎片  长 83分钟

◎导  演 Martin Owen

◎主  演 卡拉·托恩顿 Kara Tointon

      伊莎贝尔·艾伦 Isabelle Allen

      Jamie Bernadette

      Elliot James Langridge

      Helene Wilson

      Paul Casar

      Martin Owen

      Jonathan Willis

      Elizabeth Morris

      Billie Wilson

      Jules Brown


◎简  介


  三位监护人受聘于监护一群天赋异禀的儿童,他们带着AR眼睛接受辅助教育。在安保、地下设施下,事件逐渐开始失控。


Complete name : Lets.Be.Evil.2016.720p.BluRay.DTS.x264-HDS.mkv
Format : Matroska
Format version : Version 4 / Version 2
File size : 3.44 GiB
Duration : 1 h 22 min
Overall bit rate : 5 970 kb/s
Movie name : Lets Be Evil 2016 720p BluRay DTS x264-HDS
Encoded date : UTC 2017-01-06 12:42:33
Writing application : mkvmerge v9.7.1 (\'Pandemonium\') 64bit
Writing library : libebml v1.3.4 + libmatroska v1.4.5

Video
ID : 1
Format : AVC
Format/Info : Advanced Video Codec
Format profile : High@L4.1
Format settings, CABAC : Yes
Format settings, ReFrames : 9 frames
Codec ID : V_MPEG4/ISO/AVC
Duration : 1 h 22 min
Bit rate : 4 416 kb/s
Width : 1 280 pixels
Height : 690 pixels
Display aspect ratio : 1.85:1
Frame rate mode : Constant
Frame rate : 23.976 (23976/1000) FPS
Color space : YUV
Chroma subsampling : 4:2:0
Bit depth : 8 bits
Scan type : Progressive
Bits/(Pixel*Frame) : 0.209
Stream size : 2.55 GiB (74%)
Title : 剑心@HDSky
Writing library : x264 core 148 r2705+45 bdacf7a 7mod [8-bit@all X86_64]
Encoding settings : cabac=1 / ref=9 / deblock=1:-3:-3 / analyse=0x3:0x113 / me=umh / subme=11 / psy=1 / fade_compensate=0.00 / psy_rd=1.00:0.05 / mixed_ref=1 / me_range=32 / chroma_me=1 / trellis=2 / 8x8dct=1 / cqm=0 / deadzone=21,11 / fast_pskip=0 / chroma_qp_offset=-2 / threads=28 / lookahead_threads=4 / sliced_threads=0 / nr=0 / decimate=1 / interlaced=0 / bluray_compat=0 / constrained_intra=0 / fgo=0 / bframes=8 / b_pyramid=2 / b_adapt=2 / b_bias=0 / direct=3 / weightb=1 / open_gop=0 / weightp=2 / keyint=250 / keyint_min=23 / scenecut=40 / intra_refresh=0 / rc=crf / mbtree=0 / crf=18.0000 / qcomp=0.60 / qpmin=0:0:0 / qpmax=69:69:69 / qpstep=4 / ip_ratio=1.40 / pb_ratio=1.30 / aq=4:0.90 / aq-sensitivity=10.00 / aq-factor=1.00:1.00:1.00 / aq2=0 / aq3=0
Default : Yes
Forced : No

Audio
ID : 2
Format : DTS
Format/Info : Digital Theater Systems
Mode : 16
Format settings, Endianness : Big
Codec ID : A_DTS
Duration : 1 h 22 min
Bit rate mode : Constant
Bit rate : 1 509 kb/s
Channel(s) : 6 channels
Channel positions : Front: L C R, Side: L R, LFE
Sampling rate : 48.0 kHz
Frame rate : 93.750 FPS (512 spf)
Bit depth : 24 bits
Compression mode : Lossy
Stream size : 891 MiB (25%)
Title : English
Language : English
Default : Yes
Forced : No

Text
ID : 3
Format : PGS
Muxing mode : zlib
Codec ID : S_HDMV/PGS
Codec ID/Info : Picture based subtitle format used on BDs/HD-DVDs
Duration : 1 h 22 min
Bit rate : 43.2 kb/s
Count of elements : 1818
Stream size : 25.4 MiB (1%)
Title : ENG
Language : English
Default : Yes
Forced : No

Menu
00:00:00.000 : en:00:00:00.000
00:07:13.141 : en:00:07:13.141
00:14:02.133 : en:00:14:02.133
00:20:12.920 : en:00:20:12.920
00:28:03.807 : en:00:28:03.807
00:34:08.380 : en:00:34:08.380
00:42:56.407 : en:00:42:56.407
00:49:21.584 : en:00:49:21.584
00:55:04.259 : en:00:55:04.259
01:03:10.996 : en:01:03:10.996
01:09:46.724 : en:01:09:46.724
01:19:36.855 : en:01:19:36.855

Screens.png

Click Image To View Full Size

eZXCf.th.jpg
Click To View Screenshot
Click To View Screenshot
Click To View Screenshot


1 个附件 售价 大小 下载 时间

Lets.Be.Evil.2016.720p.BluRay.DTS.x264-HDS[btbtt.co].torrent 0 金币 5.48K 733 次 5月前

#1楼
发帖时间:2017-01-07 15:06:21   |   回复数:2
liyouchai
超凡入圣№
谢谢楼主分享资源
5月前 #2楼
blue23
超凡入圣№
感谢楼主分享
5月前 #3楼
游客组