aoloffline
版主

[2013] [欧美] [恐怖] [WEB-1080P] [BT下载]私人仓库 Self.Storage.2013.1080p.WEBRip.DD2.0.x264-V3T0 5.81GB

-->

◎译  名 私人仓库

◎片  名 Self Storage

◎年  代 2013

◎国  家 美国

◎类  别 恐怖

◎语  言 英语

◎上映日期 2016-03-12(美国)

◎IMDb评分  3.1/10 from 297 users

◎IMDb链接  http://imdb.com/title/tt2166500/

◎BT之家整理 http://www.btbtt.co 

◎导  演 Tom DeNucci

◎主  演 Eric Roberts ... Walter

      Michael Berryman ... Trevor

      Jonathan Silverman ... Jonah

      Nick Principe ... Freddie


◎简  介


  Jake is the overnight security guard at a highly-secured Self Storage facility in rural Rhode Island. When his friend's party plans fall through| he invites them tohis job site to throw a fiesta of his own. There couldn't be a better location: removed| no people| nothing but party... right? Innocent mischief turns a naughtynight of fun into an evening of horror. We soon learn that some things were meant to stay under lock and key and certain places were supposed to be left undisturbed.The kids aren't the only ones at the self storage facility who are looking for a night of fun.


Video
ID                                       : 1
Format                                   : AVC
Format/Info                              : Advanced Video Codec
Format profile                           : High@L4
Format settings, CABAC                   : Yes
Format settings, ReFrames                : 4 frames
Codec ID                                 : V_MPEG4/ISO/AVC
Duration                                 : 1h 32mn
Bit rate mode                            : Variable
Bit rate                                 : 8 733 Kbps
Maximum bit rate                         : 15.0 Mbps
Width                                    : 1 920 pixels
Height                                   : 1 080 pixels
Display aspect ratio                     : 16:9
Frame rate mode                          : Constant
Frame rate                               : 23.976 (24000/1001) fps
Color space                              : YUV
Chroma subsampling                       : 4:2:0
Bit depth                                : 8 bits
Scan type                                : Progressive
Bits/(Pixel*Frame)                       : 0.176
Stream size                              : 5.66 GiB (97%)
Title                                    : Self.Storage.2013.1080p.AMZN.WEBRip.DD2.0.x264-V3T0
Writing library                          : x264 core 148 r2623 d5b2374
Encoding settings                        : cabac=1 / ref=4 / deblock=1:-1:-1 / analyse=0x3:0x133 / me=umh / subme=9 / psy=1 / psy_rd=1.00:0.15 / mixed_ref=1 / me_range=24 / chroma_me=1 / trellis=2 / 8x8dct=1 / cqm=0 / deadzone=21,11 / fast_pskip=1 / chroma_qp_offset=-3 / threads=34 / lookahead_threads=5 / sliced_threads=0 / nr=150 / decimate=1 / interlaced=0 / bluray_compat=0 / constrained_intra=0 / bframes=8 / b_pyramid=2 / b_adapt=2 / b_bias=0 / direct=3 / weightb=1 / open_gop=0 / weightp=2 / keyint=120 / keyint_min=61 / scenecut=0 / intra_refresh=0 / rc_lookahead=120 / rc=crf / mbtree=1 / crf=18.0 / qcomp=0.60 / qpmin=0 / qpmax=69 / qpstep=4 / vbv_maxrate=15000 / vbv_bufsize=31250 / crf_max=0.0 / nal_hrd=vbr / filler=0 / ip_ratio=1.40 / aq=3:1.00
Default                                  : Yes
Forced                                   : No
Color range                              : Limited
Color primaries                          : BT.709
Transfer characteristics                 : BT.709
Matrix coefficients                      : BT.709

Audio
ID                                       : 2
Format                                   : E-AC-3
Format/Info                              : Audio Coding 3
Format settings, Endianness              : Big
Codec ID                                 : A_EAC3
Duration                                 : 1h 32mn
Bit rate mode                            : Constant
Bit rate                                 : 224 Kbps
Channel(s)                               : 2 channels
Channel positions                        : Front: L R
Sampling rate                            : 48.0 KHz
Frame rate                               : 187.500 fps (256 spf)
Compression mode                         : Lossy
Stream size                              : 149 MiB (3%)
Title                                    : English
Language                                 : English
Default                                  : Yes
Forced                                   : No

Text
ID                                       : 3
Format                                   : UTF-8
Codec ID                                 : S_TEXT/UTF8
Codec ID/Info                            : UTF-8 Plain Text
Duration                                 : 1h 31mn
Bit rate                                 : 56 bps
Count of elements                        : 1708
Stream size                              : 37.8 KiB (0%)
Title                                    : SDH
Language                                 : English
Default                                  : No
Forced                                   : No





1 个附件 售价 大小 下载 时间

Self.Storage.2013.1080p.WEBRip.DD2.0.x264-V3T0[btbtt.co].torrent 0 金币 58.71K 408 次 4月前

#1楼
发帖时间:2017-01-07 09:51:43   |   回复数:4
blue23
超凡入圣№
感谢楼主分享
4月前 #2楼
911degrees
一代宗师
非常感谢,谢谢分享
4月前 #3楼
liyouchai
超凡入圣№
谢谢楼主分享资源
4月前 #4楼
albb2188
一派掌门
感谢楼主提供分享影片资源!
4月前 #5楼
游客组