aoloffline
版主

[2010] [欧美] [战争] [HDTV/HDrip] [BT下载]盟军战鹰/飞蚊轰炸队 Mosquito.Squadron.1969.1080p.HDTV.x264.DD2.0-FGT 6.3GB

-->

◎译  名 盟军战鹰/飞蚊轰炸队

◎片  名 Mosquito Squadron

◎年  代 1969

◎国  家 英国

◎类  别 战争/剧情

◎语  言 英语

◎上映日期 1969

◎IMDb评分  5.6/10 from 940 users

◎IMDb链接  http://www.imdb.com/title/tt0064699/

◎豆瓣评分 6.3/10 from 11 users

◎豆瓣链接 https://movie.douban.com/subject/3655094/

◎BT之家整理 http://www.btbtt.co 

◎片  长 90 分钟

◎导  演 Boris Sagal

◎主  演 David McCallum


◎简  介


  这是一部以二战期间英国皇家空军蚊式轰炸 机为主角的空战影片。作为多用途战斗轰炸机, 蚊式可以配置机炮、火箭弹、炸弹和副油箱进行空中格斗、对地轰炸、对海攻击等不同性质的任务。

  故事讲述二战期间,正当盟军与纳粹德国处于水深火热的交锋之际,德国的秘密武器-V-3 火箭已接近研究尾声而即将投入生产,这种极具杀伤能力的武器一旦用于战争,将给整个欧洲造 成致命打击!

  英国皇家空军轰炸中队决定孤注一 掷,抢在V-3火箭投产之前将德国火箭研究基地 夷为平地……


Video
ID                                       : 1
Format                                   : AVC
Format/Info                              : Advanced Video Codec
Format profile                           : High@L4.1
Format settings, CABAC                   : Yes
Format settings, ReFrames                : 4 frames
Codec ID                                 : V_MPEG4/ISO/AVC
Duration                                 : 1h 26mn
Bit rate                                 : 10.1 Mbps
Width                                    : 1 808 pixels
Height                                   : 1 080 pixels
Display aspect ratio                     : 5:3
Frame rate mode                          : Constant
Frame rate                               : 25.000 fps
Color space                              : YUV
Chroma subsampling                       : 4:2:0
Bit depth                                : 8 bits
Scan type                                : Progressive
Bits/(Pixel*Frame)                       : 0.207
Stream size                              : 6.13 GiB (96%)
Writing library                          : x264 core 148 r2692 64f4e24
Encoding settings                        : cabac=1 / ref=4 / deblock=1:-3:-3 / analyse=0x3:0x133 / me=umh / subme=8 / psy=1 / psy_rd=1.00:0.15 / mixed_ref=1 / me_range=16 / chroma_me=1 / trellis=1 / 8x8dct=1 / cqm=0 / deadzone=21,11 / fast_pskip=0 / chroma_qp_offset=-3 / threads=12 / lookahead_threads=2 / sliced_threads=0 / nr=0 / decimate=1 / interlaced=0 / bluray_compat=0 / constrained_intra=0 / bframes=3 / b_pyramid=2 / b_adapt=2 / b_bias=0 / direct=3 / weightb=1 / open_gop=0 / weightp=2 / keyint=240 / keyint_min=24 / scenecut=40 / intra_refresh=0 / rc_lookahead=50 / rc=crf / mbtree=1 / crf=19.0 / qcomp=0.60 / qpmin=0 / qpmax=69 / qpstep=4 / ip_ratio=1.40 / aq=1:1.00
Language                                 : English
Default                                  : Yes
Forced                                   : No

Audio
ID                                       : 2
Format                                   : AC-3
Format/Info                              : Audio Coding 3
Mode extension                           : CM (complete main)
Format settings, Endianness              : Big
Codec ID                                 : A_AC3
Duration                                 : 1h 26mn
Bit rate mode                            : Constant
Bit rate                                 : 192 Kbps
Channel(s)                               : 2 channels
Channel positions                        : Front: L R
Sampling rate                            : 48.0 KHz
Frame rate                               : 31.250 fps (1536 spf)
Compression mode                         : Lossy
Stream size                              : 119 MiB (2%)
Language                                 : English
Default                                  : No
Forced                                   : No





1 个附件 售价 大小 下载 时间

Mosquito.Squadron.1969.1080p.HDTV.x264.DD2.0-FGT[btbtt.co].torrent 0 金币 64.30K 8011 次 4月前

#1楼
发帖时间:2017-01-07 09:42:45   |   回复数:5
blue23
超凡入圣№
感谢楼主分享
4月前 #2楼
911degrees
一代宗师
非常感谢,谢谢分享
4月前 #3楼
张家小子
武林高手
谢谢桉主发布分享
4月前 #4楼
liyouchai
超凡入圣№
谢谢楼主分享资源
4月前 #5楼
胡须佬XX
小有名气
用迅雷下载,显示有速度,可一直下载不完。看不了。
3月前 #6楼
游客组