aoloffline
版主

[2010] [欧美] [纪录] [WEB-1080P] [BT下载]我为喜剧生 I.Am.Comic.2010.1080p.WEBRip.DD2.0.x264-monkee 7.08GB

-->

◎译  名 我为喜剧生

◎片  名 I am Comic

◎年  代 2010

◎国  家 美国

◎类  别 纪录片

◎语  言 英语

◎上映日期 2010-05-10

◎IMDb评分  6.6/10 from 622 users

◎IMDb链接  http://www.imdb.com/title/tt1568926/

◎BT之家整理 http://www.btbtt.co 

◎片  长 87 分钟

◎导  演 Jordan Brady

◎主  演 Ritch Shydner

      Tim Allen

      Sarah Silverman


◎简  介


  Laugh| chuckle| giggle| snicker| hoot| snort. Through unprecedented interviews| exclusive backstage access| and wonderful cheesy animation| you will Thrill to theirside-splitting observations| be Awestruck at their insight| and take the Harrowing journey with Ritch Shydner as he seeks to recapture the magic



Video
ID                                       : 1
Format                                   : AVC
Format/Info                              : Advanced Video Codec
Format profile                           : High@L4
Format settings, CABAC                   : Yes
Format settings, ReFrames                : 4 frames
Codec ID                                 : V_MPEG4/ISO/AVC
Duration                                 : 1h 26mn
Bit rate mode                            : Variable
Bit rate                                 : 11.5 Mbps
Maximum bit rate                         : 15.0 Mbps
Width                                    : 1 920 pixels
Height                                   : 1 080 pixels
Display aspect ratio                     : 16:9
Frame rate mode                          : Constant
Frame rate                               : 23.976 (24000/1001) fps
Color space                              : YUV
Chroma subsampling                       : 4:2:0
Bit depth                                : 8 bits
Scan type                                : Progressive
Bits/(Pixel*Frame)                       : 0.231
Stream size                              : 6.94 GiB (98%)
Writing library                          : x264 core 148 r2623 d5b2374
Encoding settings                        : cabac=1 / ref=4 / deblock=1:-1:-1 / analyse=0x3:0x133 / me=umh / subme=9 / psy=1 / psy_rd=1.00:0.15 / mixed_ref=1 / me_range=24 / chroma_me=1 / trellis=2 / 8x8dct=1 / cqm=0 / deadzone=21,11 / fast_pskip=1 / chroma_qp_offset=-3 / threads=34 / lookahead_threads=5 / sliced_threads=0 / nr=150 / decimate=1 / interlaced=0 / bluray_compat=0 / constrained_intra=0 / bframes=8 / b_pyramid=2 / b_adapt=2 / b_bias=0 / direct=3 / weightb=1 / open_gop=0 / weightp=2 / keyint=120 / keyint_min=61 / scenecut=0 / intra_refresh=0 / rc_lookahead=120 / rc=crf / mbtree=1 / crf=18.0 / qcomp=0.60 / qpmin=0 / qpmax=69 / qpstep=4 / vbv_maxrate=15000 / vbv_bufsize=31250 / crf_max=0.0 / nal_hrd=vbr / filler=0 / ip_ratio=1.40 / aq=3:1.00
Default                                  : Yes
Forced                                   : No
Color range                              : Limited
Color primaries                          : BT.709
Transfer characteristics                 : BT.709
Matrix coefficients                      : BT.709

Audio
ID                                       : 2
Format                                   : E-AC-3
Format/Info                              : Audio Coding 3
Format settings, Endianness              : Big
Codec ID                                 : A_EAC3
Duration                                 : 1h 26mn
Bit rate mode                            : Constant
Bit rate                                 : 224 Kbps
Channel(s)                               : 2 channels
Channel positions                        : Front: L R
Sampling rate                            : 48.0 KHz
Frame rate                               : 187.500 fps (256 spf)
Compression mode                         : Lossy
Stream size                              : 139 MiB (2%)
Default                                  : Yes
Forced                                   : No

Text
ID                                       : 3
Format                                   : UTF-8
Codec ID                                 : S_TEXT/UTF8
Codec ID/Info                            : UTF-8 Plain Text
Duration                                 : 1h 26mn
Bit rate                                 : 130 bps
Count of elements                        : 3651
Stream size                              : 82.9 KiB (0%)
Language                                 : English
Default                                  : No
Forced                                   : No







1 个附件 售价 大小 下载 时间

I.Am.Comic.2010.1080p.WEBRip.DD2.0.x264-monkee[btbtt.co].torrent 0 金币 71.35K 602 次 11月前

#1楼
发帖时间:2017-01-07 09:41:14   |   回复数:3
blue23
隐世仙人♂
感谢楼主分享
11月前 #2楼
911degrees
超凡入圣№
非常感谢,谢谢分享
11月前 #3楼
liyouchai
超凡入圣№
谢谢楼主分享资源
11月前 #4楼
游客组