aoloffline
版主

[2012] [欧美] [剧情] [BD-1080P] [BT下载]理查做了什么 What.Richard.Did.2012.LIMITED.1080p.BluRay.X264-7SinS 6.5GB

-->


◎译  名 理查做了什么/理查所为

◎片  名 What Richard Did

◎年  代 2012

◎国  家 爱尔兰 Ireland

◎类  别 剧情

◎语  言 英语

◎上映日期 2012-10-05

◎IMDb评分  6.3/10 from 3,719 users

◎IMDb链接  http://www.imdb.com/title/tt2092011/

◎豆瓣评分 6.1/10 from 62 users

◎豆瓣链接 https://movie.douban.com/subject/10562341/

◎BT之家整理 http://www.btbtt.co  

◎片  长 84分钟

◎导  演 兰纳德·阿伯拉罕森 Leonard Abrahamson

◎主  演 Jack Reynor

      Roisin Murphy

      山姆·基利 Sam Keeley


◎简  介


  《理查所为》是一部关于问题少年的影片,被称为爱尔兰版本的《我们需要谈谈凯文》。主人公理查(杰克·莱诺)刚刚从中学毕业,即将升入大学。他来自富有的家庭,帅气的外表、出色的运动能力让他成为学校橄榄球队的风云人物。在这个慵懒的夏日,连绵不断的沙滩party、漫不经心的一夜情,对于理查德来说,一切都是那么容易。然而当他交上了新女朋友了拉娜(罗伊辛·墨菲)之后,形势突然起了改变。拉娜遇见了自己的前男友康纳(萨姆·凯雷),两个人除了叙旧之外就没有发生其他事情,但却让里理查醋意大发。在酒精的作用下,理查将康纳殴打致死,然而警方并不知道凶手是谁,除非理查供出自己。他周围的朋友们也都不愿意道出实情的真相,这件偶然发生的暴力事件搅乱了原本平静的世界。


Video
ID                                       : 1
Format                                   : AVC
Format/Info                              : Advanced Video Codec
Format profile                           : High@L4.1
Format settings, CABAC                   : Yes
Format settings, ReFrames                : 5 frames
Codec ID                                 : V_MPEG4/ISO/AVC
Duration                                 : 1h 27mn
Bit rate                                 : 9 233 Kbps
Width                                    : 1 920 pixels
Height                                   : 816 pixels
Display aspect ratio                     : 2.35:1
Frame rate mode                          : Constant
Frame rate                               : 24.000 fps
Color space                              : YUV
Chroma subsampling                       : 4:2:0
Bit depth                                : 8 bits
Scan type                                : Progressive
Bits/(Pixel*Frame)                       : 0.246
Stream size                              : 5.51 GiB (84%)
Writing library                          : x264 core 130 r2273 b3065e6
Encoding settings                        : cabac=1 / ref=5 / deblock=1:0:0 / analyse=0x3:0x133 / me=umh / subme=7 / psy=1 / psy_rd=1.00:0.00 / mixed_ref=1 / me_range=16 / chroma_me=1 / trellis=1 / 8x8dct=1 / cqm=0 / deadzone=21,11 / fast_pskip=0 / chroma_qp_offset=-2 / threads=12 / lookahead_threads=2 / sliced_threads=0 / nr=0 / decimate=1 / interlaced=0 / bluray_compat=0 / constrained_intra=0 / bframes=3 / b_pyramid=2 / b_adapt=2 / b_bias=0 / direct=3 / weightb=1 / open_gop=0 / weightp=2 / keyint=250 / keyint_min=24 / scenecut=40 / intra_refresh=0 / rc_lookahead=50 / rc=2pass / mbtree=1 / bitrate=9233 / ratetol=1.0 / qcomp=0.60 / qpmin=0 / qpmax=69 / qpstep=4 / cplxblur=20.0 / qblur=0.5 / ip_ratio=1.40 / aq=1:1.00
Language                                 : English
Default                                  : Yes
Forced                                   : No

Audio
ID                                       : 2
Format                                   : DTS
Format/Info                              : Digital Theater Systems
Mode                                     : 16
Format settings, Endianness              : Big
Codec ID                                 : A_DTS
Duration                                 : 1h 27mn
Bit rate mode                            : Constant
Bit rate                                 : 1 509 Kbps
Channel(s)                               : 6 channels
Channel positions                        : Front: L C R, Side: L R, LFE
Sampling rate                            : 48.0 KHz
Frame rate                               : 93.750 fps (512 spf)
Bit depth                                : 24 bits
Compression mode                         : Lossy
Stream size                              : 943 MiB (14%)
Language                                 : English
Default                                  : Yes
Forced                                   : No

Menu
00:00:00.000                             : en:00:00:00.000
00:09:58.875                             : en:00:09:58.875
00:17:43.833                             : en:00:17:43.833
00:25:40.000                             : en:00:25:40.000
00:33:40.542                             : en:00:33:40.542
00:41:17.375                             : en:00:41:17.375
00:51:17.750                             : en:00:51:17.750
00:59:22.292                             : en:00:59:22.292
01:05:01.333                             : en:01:05:01.333
01:12:19.875                             : en:01:12:19.875
01:18:13.000                             : en:01:18:13.000
01:22:37.333                             : en:01:22:37.333





1 个附件 售价 大小 下载 时间

What.Richard.Did.2012.LIMITED.1080p.BluRay.X264-7SinS[btbtt.co].torrent 0 金币 66.11K 436 次 5月前

#1楼
发帖时间:2017-01-06 21:27:19   |   回复数:4
blue23
超凡入圣№
感谢楼主分享
5月前 #2楼
liyouchai
超凡入圣№
谢谢楼主分享资源
5月前 #3楼
911degrees
一代宗师
非常感谢,谢谢分享
5月前 #4楼
tanchoohoon
一派掌门
感谢楼主的无私分享
5月前 #5楼
游客组