aoloffline
版主

[2010] [欧美] [恐怖] [BD-1080P] [BT下载]黑暗禁城/暗黑禁域 The.Dark.Lurking.2010.1080p.BluRay.x264.DD5.1-FGT 7.2GB

-->

◎译  名 黑暗禁城/暗黑禁域

◎片  名 The Dark Lurking

◎年  代 2010

◎国  家 澳大利亚

◎类  别 动作/恐怖/科幻

◎语  言 英语

◎上映日期 2008

◎IMDb评分  3.4/10 from 1,564 users

◎IMDb链接  http://www.imdb.com/title/tt1391579/

◎豆瓣评分 4.3/10 from 213 users

◎豆瓣链接 https://movie.douban.com/subject/3617965/

◎BT之家整理 http://www.btbtt.co

◎片  长 97分钟

◎导  演 Gregory Connors

◎主  演 Tonia Renee

      Bret Kennedy


◎简  介


  在搜救过程中找到作为路西法容器的少女——丽娜,搜救人员必须和幸存者杀条血路逃生,没想到的是由于感染一个接着一个,队员们在奋战中一个个死去。柯尼卡通知了公司人员,想清除所有人,带走丽娜,以掩盖其中的阴谋。在尤塔丽的帮助下,丽娜恢复生命迹象,结果在逃亡过程中尤塔丽因为感染死去。在搜救人员麦克的逼迫下,柯尼卡说出了事实,原来丽娜才是真正成功的实验品,她是最大的恶魔——路西法的容器。但麦克决定带着保护丽娜离开,柯尼卡以丽娜为胁,逃离了麦克,想带着已采集的样本独自逃走,结果忙乱中被已经感染并异化了的尤塔丽杀死了。为了掩护丽娜逃离,麦克自己被前来回收实验体的人员打死了。而受到惊吓的丽娜,身体中的恶魔终于复苏,杀死了公司派来的伏击队员,化身成为了真正的魔鬼。影片到此结束。 网上许多对些影片的简介都很简单而且也是错误的,所以特意看了下并再此更正。本片为R级电影,画面恶心,血流成河、肠子乱飞,而且多是阴暗场面,灯光昏暗,比起生化危机简直不直一提,还是不看为妙。


Video
ID                                       : 1
Format                                   : AVC
Format/Info                              : Advanced Video Codec
Format profile                           : High@L4.1
Format settings, CABAC                   : Yes
Format settings, ReFrames                : 5 frames
Codec ID                                 : V_MPEG4/ISO/AVC
Duration                                 : 1h 36mn
Bit rate                                 : 10.1 Mbps
Width                                    : 1 920 pixels
Height                                   : 816 pixels
Display aspect ratio                     : 2.35:1
Frame rate mode                          : Constant
Frame rate                               : 25.000 fps
Color space                              : YUV
Chroma subsampling                       : 4:2:0
Bit depth                                : 8 bits
Scan type                                : Progressive
Bits/(Pixel*Frame)                       : 0.258
Stream size                              : 6.67 GiB (93%)
Writing library                          : x264 core 107 r1772 c9dad9e
Encoding settings                        : cabac=1 / ref=5 / deblock=1:-3:-3 / analyse=0x3:0x113 / me=umh / subme=9 / psy=1 / psy_rd=1.10:0.15 / mixed_ref=1 / me_range=48 / chroma_me=1 / trellis=2 / 8x8dct=1 / cqm=0 / deadzone=21,11 / fast_pskip=0 / chroma_qp_offset=-2 / threads=12 / sliced_threads=0 / nr=0 / decimate=1 / interlaced=0 / constrained_intra=0 / bframes=6 / b_pyramid=2 / b_adapt=2 / b_bias=0 / direct=3 / weightb=1 / open_gop=0 / weightp=2 / keyint=250 / keyint_min=25 / scenecut=40 / intra_refresh=0 / rc_lookahead=60 / rc=2pass / mbtree=1 / bitrate=10118 / ratetol=1.0 / qcomp=0.70 / qpmin=10 / qpmax=51 / qpstep=4 / cplxblur=20.0 / qblur=0.5 / vbv_maxrate=45000 / vbv_bufsize=40000 / ip_ratio=1.40 / aq=1:0.90 / nal_hrd=none
Language                                 : English
Default                                  : Yes
Forced                                   : No

Audio
ID                                       : 2
Format                                   : AC-3
Format/Info                              : Audio Coding 3
Mode extension                           : CM (complete main)
Format settings, Endianness              : Big
Codec ID                                 : A_AC3
Duration                                 : 1h 36mn
Bit rate mode                            : Constant
Bit rate                                 : 576 Kbps
Channel(s)                               : 6 channels
Channel positions                        : Front: L C R, Side: L R, LFE
Sampling rate                            : 48.0 KHz
Frame rate                               : 31.250 fps (1536 spf)
Compression mode                         : Lossy
Stream size                              : 398 MiB (5%)
Language                                 : English
Default                                  : Yes
Forced                                   : No





1 个附件 售价 大小 下载 时间

The.Dark.Lurking.2010.1080p.BluRay.x264.DD5.1-FGT[btbtt.co].torrent 0 金币 72.67K 901 次 4月前

#1楼
发帖时间:2017-01-06 21:10:12   |   回复数:4
blue23
超凡入圣№
感谢楼主分享
4月前 #2楼
liyouchai
超凡入圣№
谢谢楼主分享资源
4月前 #3楼
albb2188
一派掌门
感谢楼主提供分享影片资源!
4月前 #4楼
911degrees
一代宗师
非常感谢,谢谢分享
4月前 #5楼
游客组