aoloffline
版主

[更 早] [欧美] [喜剧] [BD-1080P] [BT下载]幸福捷径 Shortcut.To.Happiness.2004.1080p.BluRay.x264.DTS-AiRLiNE 6.8GB

-->


◎译  名 幸福捷径/快乐捷径

◎片  名 Shortcut to Happiness

◎年  代 2004

◎国  家 美国

◎类  别 喜剧/剧情/奇幻

◎语  言 英语

◎上映日期 2007-07-13

◎IMDb评分  5.6/10 from 4,098 users

◎IMDb链接  http://www.imdb.com/title/tt0263265/

◎豆瓣评分 5.7/10 from 461 users

◎豆瓣链接 https://movie.douban.com/subject/2042979/

◎片  长 106 分钟

◎导  演 Alec Baldwin

◎主  演 Anthony Hopkins

      Alec Baldwin

      Jennifer Love Hewitt


◎简  介


  杰贝兹·斯通(亚历克·鲍德温饰)不是一个出类拔萃的作家,但他在写下的每个字中都倾注了全部心血。他在努力争取出版自己的作品,每天清早起床之后,他都要先潜心写作,然后再去销售那些自己买不起的昂贵男装。女人们不会对他感兴趣,他的银行存款只有区区500美元。不过,斯通有挚交,他心地善良而且自重。

  斯通开始厄运连连,先是失业,再是为了见到传奇出版商丹尼尔·韦伯斯特(安东尼·霍普金斯饰)而被逐出出版公司,而之前韦伯斯特早就退回了他的手稿。还有,朋友们在酒吧欢聚一堂,斯通得知好友朱利叶斯·杰森(丹·艾克罗伊德饰)竟然刚同韦伯斯特公司签下19万美元的出版合同。沮丧至极的斯通离开酒吧,来到提款机前的他发现自己只剩下50美元。斯通步履蹒跚,在回家的路上被一群小混混殴打,存有小说的电脑也被偷走……

  绝望中的斯通想起了韦伯斯特的话:“回家去写点什么,斯通先生,写点更好的东西。”斯通冲向壁橱,找出老式打字机,不停的敲击键盘,而他打出的只有“19万美元”,直到打字机罢工。

  斯通气急败坏的将打字机扔出窗外,楼下随即传来惨叫,打字机砸中了一个老妇人,救护车和警车呼啸而至。一阵急促的敲门声过后,斯通诚惶诚恐的打开门,却发现门口站着一位红发艳妇(詹妮弗·洛夫·休伊特饰)。正当斯通因她的美艳而张口结舌之时,警察的敲门声再次让他陷入了恐慌之中。

  斯通鬼使神差般的听从了艳妇的安排,躲进了壁橱。转瞬之间,打碎的玻璃窗和警察都消失不见,生命垂危的老妇人也不治自愈,喜出望外的斯通愿意同这个性感的撒旦达成任何交易。

  斯通出卖了灵魂,换来了他梦寐以求的成功。第二天一早,幸运像狂风暴雨一样汹涌而至,出版商决定出版斯通的小说,斯通口袋中的零钞全都变成了百元大钞,走在街上,所有女人都在饥渴的注视着他。

  小说第一次印刷的10万册被定购一空,美女编辑康斯坦斯·哈瑞(金·凯特罗尔饰)主动向他投怀送抱,汤姆·克鲁斯希望买下小说的改编拍摄权,就连出租车司机都为他而拒载其他乘客。

  很多年过去了,斯通的朋友们离开了人世,而他的作品依然狂卖如初。斯通厌倦了成功,他感到成功在吞噬他,当初他选择了通往幸福的捷径,而如今却无法脱身、难以自拔……


Video
ID                                       : 1
Format                                   : AVC
Format/Info                              : Advanced Video Codec
Format profile                           : High@L4.1
Format settings, CABAC                   : Yes
Format settings, ReFrames                : 4 frames
Codec ID                                 : V_MPEG4/ISO/AVC
Duration                                 : 1h 41mn
Bit rate                                 : 8 170 Kbps
Width                                    : 1 920 pixels
Height                                   : 1 072 pixels
Display aspect ratio                     : 16:9
Frame rate mode                          : Constant
Frame rate                               : 23.976 (24000/1001) fps
Color space                              : YUV
Chroma subsampling                       : 4:2:0
Bit depth                                : 8 bits
Scan type                                : Progressive
Bits/(Pixel*Frame)                       : 0.166
Stream size                              : 5.67 GiB (82%)
Writing library                          : x264 core 119 r2106 07efeb4
Encoding settings                        : cabac=1 / ref=4 / deblock=1:0:0 / analyse=0x3:0x133 / me=umh / subme=7 / psy=1 / psy_rd=1.00:0.00 / mixed_ref=1 / me_range=16 / chroma_me=1 / trellis=1 / 8x8dct=1 / cqm=0 / deadzone=21,11 / fast_pskip=0 / chroma_qp_offset=-2 / threads=12 / sliced_threads=0 / nr=0 / decimate=1 / interlaced=0 / bluray_compat=0 / constrained_intra=0 / bframes=3 / b_pyramid=2 / b_adapt=2 / b_bias=0 / direct=3 / weightb=1 / open_gop=0 / weightp=2 / keyint=250 / keyint_min=23 / scenecut=40 / intra_refresh=0 / rc_lookahead=60 / rc=2pass / mbtree=1 / bitrate=8170 / ratetol=1.0 / qcomp=0.60 / qpmin=10 / qpmax=51 / qpstep=4 / cplxblur=20.0 / qblur=0.5 / ip_ratio=1.40 / aq=1:1.00
Default                                  : Yes
Forced                                   : No

Audio
ID                                       : 2
Format                                   : DTS
Format/Info                              : Digital Theater Systems
Mode                                     : 16
Format settings, Endianness              : Big
Codec ID                                 : A_DTS
Duration                                 : 1h 41mn
Bit rate mode                            : Constant
Bit rate                                 : 1 509 Kbps
Channel(s)                               : 6 channels
Channel positions                        : Front: L C R, Side: L R, LFE
Sampling rate                            : 48.0 KHz
Frame rate                               : 93.750 fps (512 spf)
Bit depth                                : 24 bits
Compression mode                         : Lossy
Stream size                              : 1.07 GiB (16%)
Language                                 : English
Default                                  : Yes
Forced                                   : No

00:00:00.000                             : en:00:00:00.000
00:09:56.012                             : en:00:09:56.012
00:19:23.287                             : en:00:19:23.287
00:30:06.471                             : en:00:30:06.471
00:37:57.358                             : en:00:37:57.358
00:50:06.003                             : en:00:50:06.003
00:57:13.430                             : en:00:57:13.430
01:07:10.235                             : en:01:07:10.235
01:15:01.288                             : en:01:15:01.288
01:24:56.466                             : en:01:24:56.466
01:30:14.909                             : en:01:30:14.909
01:38:03.211                             : en:01:38:03.211





1 个附件 售价 大小 下载 时间

Shortcut.To.Happiness.2004.1080p.BluRay.x264.DTS-AiRLiNE[btbtt.co].torrent 0 金币 69.43K 499 次 1月前

#1楼
发帖时间:2017-01-06 21:04:21   |   回复数:3
blue23
超凡入圣№
感谢楼主分享
1月前 #2楼
liyouchai
一代宗师
谢谢楼主分享资源
1月前 #3楼
911degrees
一代宗师
非常感谢,谢谢分享
1月前 #4楼
游客组