aoloffline
版主

[更 早] [欧美] [剧情] [BD-1080P] [BT下载]征服者贝莱 Pelle.the.Conqueror.1987.1080p.BluRay.x264-AMBASSADOR 10.9GB

-->

◎译  名 征服者贝莱/征服者佩利/征服者佩尔/征服者佩莱/比利小英雄/赤子雄心

◎片  名 Pelle erövraren

◎年  代 1987

◎国  家 丹麦/瑞典

◎类  别 剧情

◎语  言 丹麦语/瑞典语

◎上映日期 1987-12-25

◎IMDb评分  7.9/10 from 7,930 users

◎IMDb链接  http://www.imdb.com/title/tt0093713/

◎豆瓣评分 8.5/10 from 1,803 users

◎豆瓣链接 https://movie.douban.com/subject/1298784/

◎BT之家整理 http://www.btbtt.co

◎片  长 157 分钟

◎导  演 比利·奥古斯特 Bille August

◎主  演 贝利·赫维内加拉德 Pelle Hvenegaard

      马克斯·冯·叙多 Max von Sydow

      埃里克·帕斯卡 Erik Paaske

      比约恩·格拉纳特 Björn Granath


◎简  介


  故事发生在十九世纪末北欧,混乱的局势衰颓的经济令人民们陷入了民不聊生的境地。农民拉斯卡森(马克斯·冯·西多 Max von Sydow 饰)带着儿子佩尔(贝利·赫维内加拉德 Pelle Hvenegaard 饰)来到丹麦,希望能够在这里依靠自己的双手挣得更体面的生活。

  然而,现实却远不如想象中那么美好,父子两人好不容易在农庄里找到了一份清理马厩的工作,无处可去的两人只能和马只一起睡在茅草堆上,白日里还要受到雇主的责难和剥削,生活苦不堪言。长工埃里克(比约恩·格拉纳特 Björn Granath 饰)积极的领导工人们同压迫他们的管家作斗争,埃里克的自由精神深深鼓舞了佩尔,使他决定离开庄园,开拓新的天地。


◎获奖情况


  第61届奥斯卡金像奖  (1989)

  最佳男主角(提名) 马克斯·冯·叙多

  最佳外语片


  第41届戛纳电影节  (1988)

  主竞赛单元 金棕榈奖 比利·奥古斯特


Video
ID                                       : 1
Format                                   : AVC
Format/Info                              : Advanced Video Codec
Format profile                           : High@L4.1
Format settings, CABAC                   : Yes
Format settings, ReFrames                : 4 frames
Codec ID                                 : V_MPEG4/ISO/AVC
Duration                                 : 2h 23mn
Bit rate                                 : 9 375 Kbps
Width                                    : 1 920 pixels
Height                                   : 1 032 pixels
Display aspect ratio                     : 1.85:1
Frame rate mode                          : Constant
Frame rate                               : 25.000 fps
Color space                              : YUV
Chroma subsampling                       : 4:2:0
Bit depth                                : 8 bits
Scan type                                : Progressive
Bits/(Pixel*Frame)                       : 0.189
Stream size                              : 9.20 GiB (84%)
Writing library                          : x264 core 142 r2431 ac76440
Encoding settings                        : cabac=1 / ref=4 / deblock=1:0:0 / analyse=0x3:0x113 / me=umh / subme=7 / psy=1 / psy_rd=1.00:0.00 / mixed_ref=1 / me_range=16 / chroma_me=1 / trellis=1 / 8x8dct=1 / cqm=0 / deadzone=21,11 / fast_pskip=0 / chroma_qp_offset=-2 / threads=12 / lookahead_threads=2 / sliced_threads=0 / nr=0 / decimate=1 / interlaced=0 / bluray_compat=0 / constrained_intra=0 / bframes=3 / b_pyramid=2 / b_adapt=2 / b_bias=0 / direct=3 / weightb=1 / open_gop=0 / weightp=2 / keyint=250 / keyint_min=25 / scenecut=40 / intra_refresh=0 / rc_lookahead=50 / rc=2pass / mbtree=1 / bitrate=9375 / ratetol=1.0 / qcomp=0.60 / qpmin=0 / qpmax=69 / qpstep=4 / cplxblur=20.0 / qblur=0.5 / ip_ratio=1.40 / aq=1:1.00
Default                                  : Yes
Forced                                   : No

Audio
ID                                       : 2
Format                                   : DTS
Format/Info                              : Digital Theater Systems
Mode                                     : 16
Format settings, Endianness              : Big
Codec ID                                 : A_DTS
Duration                                 : 2h 23mn
Bit rate mode                            : Constant
Bit rate                                 : 1 509 Kbps
Channel(s)                               : 6 channels
Channel positions                        : Front: L C R, Side: L R, LFE
Sampling rate                            : 48.0 KHz
Frame rate                               : 93.750 fps (512 spf)
Bit depth                                : 16 bits
Compression mode                         : Lossy
Stream size                              : 1.52 GiB (14%)
Language                                 : English
Default                                  : Yes
Forced                                   : No





1 个附件 售价 大小 下载 时间

Pelle.the.Conqueror.1987.1080p.BluRay.x264-AMBASSADOR[btbtt.co].torrent 0 金币 55.23K 848 次 3月前

#1楼
发帖时间:2017-01-06 20:59:26   |   回复数:4
blue23
超凡入圣№
感谢楼主分享
3月前 #2楼
liyouchai
超凡入圣№
谢谢楼主分享资源
3月前 #3楼
911degrees
一代宗师
非常感谢,谢谢分享
3月前 #4楼
tanchoohoon
一派掌门
感谢楼主的无私分享
3月前 #5楼
游客组