aoloffline
版主

[更 早] [日本] [动画] [BD-1080P] [BT下载]萤火虫之墓 Grave.of.the.Fireflies.1988.1080p.BluRay.x264.DD2.0-FGT 10.27GB

-->

◎译  名 萤火虫之墓/再见萤火虫(港)/萤火挽歌/火帘之墓

◎片  名 火垂るの墓

◎年  代 1988

◎国  家 日本

◎类  别 动画/剧情/战争

◎语  言 日语

◎上映日期 1988-04-16(日本)

◎IMDb评分  8.5/10 from 146,283 users

◎IMDb链接  http://www.imdb.com/title/tt0095327/

◎豆瓣评分 8.7/10 from 183,382 users

◎豆瓣链接 https://movie.douban.com/subject/1293318/

◎BT之家整理 http://www.btbtt.co

◎片  长 89 分钟

◎导  演 高畑勋 Isao Takahata

◎主  演 辰己努

      白石绫乃

      志乃原良子

      山口朱美

      端田宏三


◎简  介


  美日战争爆发,14岁的清太带着年幼的妹妹到处逃命,当他们到达防空洞的时候,母亲已身受重伤,没过多久便不久人世。两兄妹自此过着相依为命的日子。他们只好投靠了母亲的姐妹,纵使他们把家里所有的家当都送给了阿姨,但当食物吃完,他们就越感到了寄人篱下的感觉,清太决定带着妹妹离开独自生活。火灾硝烟中的生活并不好过,清太为了妹妹四处偷取食物,但妹妹还是严重营养不良……

Video
ID                                       : 1
Format                                   : AVC
Format/Info                              : Advanced Video Codec
Format profile                           : High@L4.1
Format settings, CABAC                   : Yes
Format settings, ReFrames                : 4 frames
Codec ID                                 : V_MPEG4/ISO/AVC
Duration                                 : 1h 28mn
Bit rate                                 : 16.1 Mbps
Width                                    : 1 920 pixels
Height                                   : 1 040 pixels
Display aspect ratio                     : 1.85:1
Frame rate mode                          : Constant
Frame rate                               : 23.976 (24000/1001) fps
Color space                              : YUV
Chroma subsampling                       : 4:2:0
Bit depth                                : 8 bits
Scan type                                : Progressive
Bits/(Pixel*Frame)                       : 0.337
Stream size                              : 9.99 GiB (97%)
Writing library                          : x264 core 142 r2409kMod d6b4e63
Encoding settings                        : cabac=1 / ref=4 / deblock=1:-3:-3 / analyse=0x3:0x113 / me=umh / subme=10 / psy=1 / fade_compensate=0.00 / psy_rd=1.10:0.00 / mixed_ref=1 / me_range=32 / chroma_me=1 / trellis=2 / 8x8dct=1 / cqm=0 / deadzone=21,11 / fast_pskip=0 / chroma_qp_offset=-2 / threads=6 / lookahead_threads=1 / sliced_threads=0 / nr=0 / decimate=0 / interlaced=0 / bluray_compat=0 / constrained_intra=0 / fgo=0 / bframes=8 / b_pyramid=2 / b_adapt=2 / b_bias=0 / direct=3 / weightb=1 / open_gop=0 / weightp=2 / keyint=250 / keyint_min=23 / scenecut=40 / intra_refresh=0 / rc_lookahead=60 / rc=crf / mbtree=0 / crf=18.0000 / qcomp=0.70 / qpmin=0 / qpmax=69 / qpstep=4 / vbv_maxrate=62500 / vbv_bufsize=78125 / crf_max=0.0 / nal_hrd=none / filler=0 / ip_ratio=1.20 / pb_ratio=1.10 / aq=1:0.80
Language                                 : English
Default                                  : Yes
Forced                                   : No

Audio
ID                                       : 2
Format                                   : AC-3
Format/Info                              : Audio Coding 3
Mode extension                           : CM (complete main)
Format settings, Endianness              : Big
Codec ID                                 : A_AC3
Duration                                 : 1h 28mn
Bit rate mode                            : Constant
Bit rate                                 : 128 Kbps
Channel(s)                               : 2 channels
Channel positions                        : Front: L R
Sampling rate                            : 48.0 KHz
Frame rate                               : 31.250 fps (1536 spf)
Compression mode                         : Lossy
Stream size                              : 81.1 MiB (1%)
Language                                 : English
Default                                  : No
Forced                                   : No

Text
ID                                       : 3
Format                                   : UTF-8
Codec ID                                 : S_TEXT/UTF8
Codec ID/Info                            : UTF-8 Plain Text
Language                                 : English
Default                                  : No
Forced                                   : No

Menu
00:00:00.000                             : en:Chapter 1
00:03:27.541                             : en:Chapter 2
00:13:24.429                             : en:Chapter 3
00:25:54.595                             : en:Chapter 4
00:36:15.715                             : en:Chapter 5
00:43:36.364                             : en:Chapter 6
00:52:10.252                             : en:Chapter 7
00:56:29.386                             : en:Chapter 8
01:04:10.346                             : en:Chapter 9
01:13:30.322                             : en:Chapter 10
01:19:35.646                             : en:Chapter 11
01:25:33.920                             : en:Chapter 12





1 个附件 售价 大小 下载 时间

Grave.of.the.Fireflies.1988.1080p.BluRay.x264.DD2.0-FGT[btbtt.co].torrent 0 金币 51.98K 1098 次 2月前

#1楼
发帖时间:2017-01-06 20:51:56   |   回复数:3
blue23
超凡入圣№
感谢楼主分享
2月前 #2楼
liyouchai
超凡入圣№
谢谢楼主分享资源
2月前 #3楼
911degrees
一代宗师
非常感谢,谢谢分享
2月前 #4楼
游客组