aoloffline
版主

[2009] [欧美] [动作] [BD-1080P] [BT下载]侦探马龙 Give.em.Hell.Malone.2009.1080p.BluRay.x264.DTS-FGT 8.75GB

-->

◎译  名 侦探马龙

◎片  名 Give 'em Hell, Malone

◎年  代 2009

◎国  家 美国

◎类  别 动作/犯罪/惊悚

◎语  言 英语

◎上映日期 2009-07-25

◎IMDb评分  6.0/10 from 5,479 users

◎IMDb链接  http://www.imdb.com/title/tt1258137/

◎豆瓣评分 5.5/10 from 1,128 users

◎豆瓣链接 https://movie.douban.com/subject/3161047/

◎BT之家整理 http://www.btbtt.co

◎片  长 96分钟

◎导  演 拉塞尔·穆卡希 Russell Mulcahy

◎主  演 托马斯·简 Thomas Jane

      埃尔莎·帕塔奇 Elsa Pataky

      文·瑞姆斯 Ving Rhames

      乔·曼特纳 Joe Mantegna

      道格·休切逊 Doug Hutchison


◎简  介


  马龙是一名私家侦探,他最近掌握了一个重要的信息,由此引来了黑帮的追杀,一场腥风血雨不可避免地即将来临。


Video
ID                                       : 1
Format                                   : AVC
Format/Info                              : Advanced Video Codec
Format profile                           : High@L4.1
Format settings, CABAC                   : Yes
Format settings, ReFrames                : 5 frames
Format settings, GOP                     : N=1
Codec ID                                 : V_MPEG4/ISO/AVC
Duration                                 : 1h 36mn
Bit rate                                 : 11.5 Mbps
Width                                    : 1 920 pixels
Height                                   : 816 pixels
Display aspect ratio                     : 2.35:1
Frame rate mode                          : Constant
Frame rate                               : 23.976 (24000/1001) fps
Color space                              : YUV
Chroma subsampling                       : 4:2:0
Bit depth                                : 8 bits
Scan type                                : Progressive
Bits/(Pixel*Frame)                       : 0.305
Stream size                              : 7.55 GiB (86%)
Writing library                          : x264 core 68 r1179M 96e2229
Encoding settings                        : cabac=1 / ref=5 / deblock=1:-3:-3 / analyse=0x3:0x133 / me=umh / subme=9 / psy_rd=1.1:0.0 / mixed_ref=1 / me_range=32 / chroma_me=1 / trellis=2 / 8x8dct=1 / cqm=0 / deadzone=21,11 / chroma_qp_offset=-4 / threads=24 / nr=0 / decimate=1 / mbaff=0 / bframes=4 / b_pyramid=1 / b_adapt=2 / b_bias=0 / direct=3 / wpredb=1 / keyint=250 / keyint_min=25 / scenecut=40 / rc=2pass / bitrate=11471 / ratetol=1.0 / qcomp=0.60 / qpmin=10 / qpmax=51 / qpstep=4 / cplxblur=20.0 / qblur=0.5 / ip_ratio=1.40 / pb_ratio=1.30 / aq=1:1.00
Language                                 : English
Default                                  : Yes
Forced                                   : No

Audio
ID                                       : 2
Format                                   : DTS
Format/Info                              : Digital Theater Systems
Mode                                     : 16
Format settings, Endianness              : Big
Codec ID                                 : A_DTS
Duration                                 : 1h 36mn
Bit rate mode                            : Constant
Bit rate                                 : 1 509 Kbps
Channel(s)                               : 6 channels
Channel positions                        : Front: L C R, Side: L R, LFE
Sampling rate                            : 48.0 KHz
Frame rate                               : 93.750 fps (512 spf)
Bit depth                                : 24 bits
Compression mode                         : Lossy
Stream size                              : 1.02 GiB (12%)
Language                                 : English
Default                                  : No
Forced                                   : No





1 个附件 售价 大小 下载 时间

Give.em.Hell.Malone.2009.1080p.BluRay.x264.DTS-FGT[btbtt.co].torrent 0 金币 88.06K 977 次 4月前

#1楼
发帖时间:2017-01-06 20:50:24   |   回复数:4
blue23
超凡入圣№
感谢楼主分享
4月前 #2楼
liyouchai
超凡入圣№
谢谢楼主分享资源
4月前 #3楼
albb2188
一派掌门
感谢楼主提供分享影片资源!
4月前 #4楼
911degrees
一代宗师
非常感谢,谢谢分享
4月前 #5楼
游客组