aoloffline
版主

[2013] [欧美] [恐怖] [BD-1080P] [BT下载]鬼喂饭/人肉餐厅 Evil.Feed.Uncut.2013.1080p.BluRay.x264-AMBASSADOR 7.6GB

-->

◎译  名 鬼喂饭/人肉餐厅

◎片  名 Evil Feed

◎年  代 2013

◎国  家 加拿大

◎类  别 动作/恐怖

◎语  言 英语

◎IMDb评分  4.0/10 from 565 users

◎IMDb链接  http://www.imdb.com/title/tt2302601/

◎豆瓣评分 3.8/10 from 26 users

◎豆瓣链接 https://movie.douban.com/subject/21326327/

◎BT之家整理 http://www.btbtt.co

◎导  演 Kimani Ray Smith

◎主  演 Laci J Mailey

      Terry Chen

      Alain Chanoine


◎简  介


  A group of young martial artists infiltrate an underground pit fighting ring where the loser is chopped up and served in a Chinese restaurant.



Video
ID                                       : 1
Format                                   : AVC
Format/Info                              : Advanced Video Codec
Format profile                           : High@L4.1
Format settings, CABAC                   : Yes
Format settings, ReFrames                : 5 frames
Codec ID                                 : V_MPEG4/ISO/AVC
Duration                                 : 1h 29mn
Bit rate                                 : 10.7 Mbps
Width                                    : 1 920 pixels
Height                                   : 808 pixels
Display aspect ratio                     : 2.40:1
Frame rate mode                          : Constant
Frame rate                               : 23.976 (24000/1001) fps
Original frame rate                      : 23.976 (23976/1000) fps
Color space                              : YUV
Chroma subsampling                       : 4:2:0
Bit depth                                : 8 bits
Scan type                                : Progressive
Bits/(Pixel*Frame)                       : 0.288
Stream size                              : 6.71 GiB (88%)
Writing library                          : x264 core 148 r2597 e86f3a1
Encoding settings                        : cabac=1 / ref=5 / deblock=1:0:0 / analyse=0x3:0x113 / me=umh / subme=7 / psy=1 / psy_rd=1.00:0.00 / mixed_ref=1 / me_range=16 / chroma_me=1 / trellis=1 / 8x8dct=1 / cqm=0 / deadzone=21,11 / fast_pskip=0 / chroma_qp_offset=-2 / threads=12 / lookahead_threads=2 / sliced_threads=0 / nr=0 / decimate=1 / interlaced=0 / bluray_compat=0 / constrained_intra=0 / bframes=3 / b_pyramid=2 / b_adapt=2 / b_bias=0 / direct=3 / weightb=1 / open_gop=0 / weightp=2 / keyint=250 / keyint_min=23 / scenecut=40 / intra_refresh=0 / rc_lookahead=50 / rc=2pass / mbtree=1 / bitrate=10730 / ratetol=1.0 / qcomp=0.60 / qpmin=0 / qpmax=69 / qpstep=4 / cplxblur=20.0 / qblur=0.5 / ip_ratio=1.40 / aq=1:1.00
Default                                  : Yes
Forced                                   : No

Audio
ID                                       : 2
Format                                   : DTS
Format/Info                              : Digital Theater Systems
Mode                                     : 16
Format settings, Endianness              : Big
Codec ID                                 : A_DTS
Duration                                 : 1h 29mn
Bit rate mode                            : Constant
Bit rate                                 : 1 509 Kbps
Channel(s)                               : 6 channels
Channel positions                        : Front: L C R, Side: L R, LFE
Sampling rate                            : 48.0 KHz
Frame rate                               : 93.750 fps (512 spf)
Bit depth                                : 24 bits
Compression mode                         : Lossy
Stream size                              : 966 MiB (12%)
Language                                 : English
Default                                  : Yes
Forced                                   : No





1 个附件 售价 大小 下载 时间

Evil.Feed.Uncut.2013.1080p.BluRay.x264-AMBASSADOR[btbtt.co].torrent 0 金币 77.04K 1267 次 13天前

#1楼
发帖时间:2017-01-06 20:38:18   |   回复数:4
blue23
超凡入圣№
感谢楼主分享
13天前 #2楼
liyouchai
一代宗师
谢谢楼主分享资源
13天前 #3楼
albb2188
武林高手
感谢楼主提供分享影片资源!
12天前 #4楼
911degrees
一代宗师
非常感谢,谢谢分享
12天前 #5楼
游客组