aoloffline
版主

[2009] [欧美] [恐怖] [BD-1080P] [BT下载]血书 Clive.Barkers.Book.of.Blood.2009.1080p.BluRay.x264.DTS-FHD 6.88GB

-->

◎译  名 血书

◎片  名 Book of Blood

◎年  代 2009

◎国  家 英国

◎类  别 剧情/奇幻/恐怖/悬疑/惊悚

◎语  言 英语

◎上映日期 2009-03-07

◎IMDb评分  5.3/10 from 5,994 users

◎IMDb链接  http://www.imdb.com/title/tt1169809/

◎豆瓣评分 5.4/10 from 435 users

◎豆瓣链接 https://movie.douban.com/subject/2382281/

◎BT之家整理 http://www.btbtt.co

◎片  长 100分钟

◎导  演 John Harrison

◎主  演 John Harrison

      Sophie Ward

      道格·布拉德利 Doug Bradley

      约纳斯·阿姆斯特朗 Jonas Armstrong


◎简  介


  《血书》由约翰·哈里森执导、约纳斯·阿姆斯特朗主演,故事说的是一位研究超自然现象的专家去调查一间曾发生无数离奇凶案的鬼屋。随着调查的慎入,他发现这房间竟然是运送灵魂进入来世的高速路交叉点,地狱也就此浮现……



Video
ID                                       : 1
Format                                   : AVC
Format/Info                              : Advanced Video Codec
Format profile                           : High@L4.1
Format settings, CABAC                   : Yes
Format settings, ReFrames                : 4 frames
Codec ID                                 : V_MPEG4/ISO/AVC
Duration                                 : 1h 40mn
Bit rate                                 : 8 302 Kbps
Width                                    : 1 920 pixels
Height                                   : 1 040 pixels
Display aspect ratio                     : 1.85:1
Frame rate mode                          : Constant
Frame rate                               : 23.976 (24000/1001) fps
Color space                              : YUV
Chroma subsampling                       : 4:2:0
Bit depth                                : 8 bits
Scan type                                : Progressive
Bits/(Pixel*Frame)                       : 0.173
Stream size                              : 5.69 GiB (83%)
Writing library                          : x264 core 114 r1924 08d04a4
Encoding settings                        : cabac=1 / ref=4 / deblock=1:0:0 / analyse=0x3:0x113 / me=umh / subme=7 / psy=1 / psy_rd=1.00:0.00 / mixed_ref=1 / me_range=16 / chroma_me=1 / trellis=1 / 8x8dct=1 / cqm=0 / deadzone=21,11 / fast_pskip=0 / chroma_qp_offset=-2 / threads=6 / sliced_threads=0 / nr=0 / decimate=1 / interlaced=0 / constrained_intra=0 / bframes=3 / b_pyramid=2 / b_adapt=1 / b_bias=0 / direct=1 / weightb=1 / open_gop=0 / weightp=2 / keyint=250 / keyint_min=23 / scenecut=40 / intra_refresh=0 / rc_lookahead=40 / rc=2pass / mbtree=1 / bitrate=8302 / ratetol=1.0 / qcomp=0.60 / qpmin=0 / qpmax=69 / qpstep=4 / cplxblur=20.0 / qblur=0.5 / ip_ratio=1.40 / aq=1:1.00
Language                                 : English
Default                                  : Yes
Forced                                   : No

Audio
ID                                       : 2
Format                                   : DTS
Format/Info                              : Digital Theater Systems
Mode                                     : 16
Format settings, Endianness              : Big
Codec ID                                 : A_DTS
Duration                                 : 1h 40mn
Bit rate mode                            : Constant
Bit rate                                 : 1 509 Kbps
Channel(s)                               : 6 channels
Channel positions                        : Front: L C R, Side: L R, LFE
Sampling rate                            : 48.0 KHz
Frame rate                               : 93.750 fps (512 spf)
Bit depth                                : 24 bits
Compression mode                         : Lossy
Stream size                              : 1.06 GiB (15%)
Language                                 : English
Default                                  : Yes
Forced                                   : No




2 个附件 售价 大小 下载 时间

Clive.Barkers.Book.of.Blood.2009.1080p.BluRay.x264.DTS-FHD[btbtt.co].torrent 0 金币 69.47K 507 次 1月前

Clive.Barkers.Book.of.Blood.2009.1080p.BluRay.x264.DTS-FHD[btbtt.co].torrent 0 金币 69.47K 117 次 1月前

#1楼
发帖时间:2017-01-06 20:34:49   |   回复数:4
blue23
超凡入圣№
感谢楼主分享
1月前 #2楼
liyouchai
一代宗师
谢谢楼主分享资源
1月前 #3楼
albb2188
武林高手
感谢楼主提供分享影片资源!
1月前 #4楼
911degrees
一代宗师
非常感谢,谢谢分享
1月前 #5楼
游客组